呆呆狐狸
超级版主

[2016] [德国] [剧情] [打包] [BT下载][马克西米利安:权力和爱情的游戏/Maximilian 第一季][全06集打包][德语无字][MKV][1080P][片源]

-->

◎译  名 马克西米利安:权力和爱情的游戏/马克西米利安

◎片  名 Maximilian

◎年  代 2016

◎产  地 Austria

◎类  别 劇情 Drama

◎语  言 德語 German

◎上映日期 2016-12-12

◎BT之家整理 http://www.51btbtt.com/

◎集  数 6

◎片  长 90分钟

◎导  演 安德烈亚斯·普罗查斯卡 Andreas Prochaska

◎主  演 杰尼斯·纽沃纳 Jannis Niewöhner


◎简  介


  In 1477 Charles the Bolds dies, his only child is a girl which cannot rule w/o a husband. Meanwhile in Austria, Emperor Frederick III and his antagonist Louis XI France battle over said marriage prospects, battles ensue, tragedy falls.


Video
ID : 1
Format : AVC
Format/Info : Advanced Video Codec
Format profile : [email protected]
Format settings : CABAC / 4 Ref Frames
Format settings, CABAC : Yes
Format settings, ReFrames : 4 frames
Codec ID : V_MPEG4/ISO/AVC
Duration : 49 min 9 s
Bit rate mode : Variable
Bit rate : 6 636 kb/s
Maximum bit rate : 15.0 Mb/s
Width : 1 920 pixels
Height : 1 080 pixels
Display aspect ratio : 16:9
Frame rate mode : Constant
Frame rate : 23.976 (24000/1001) FPS
Color space : YUV
Chroma subsampling : 4:2:0
Bit depth : 8 bits
Scan type : Progressive
Bits/(Pixel*Frame) : 0.133
Stream size : 2.28 GiB (97%)
Default : Yes
Forced : No
Color range : Limited
Color primaries : BT.709
Transfer characteristics : BT.709
Matrix coefficients : BT.709

Audio
ID : 2
Format : E-AC-3
Format/Info : Enhanced AC-3
Commercial name : Dolby Digital Plus
Codec ID : A_EAC3
Duration : 49 min 9 s
Bit rate mode : Constant
Bit rate : 224 kb/s
Channel(s) : 2 channels
Channel layout : L R
Sampling rate : 48.0 kHz
Frame rate : 31.250 FPS (1536 SPF)
Compression mode : Lossy
Stream size : 78.8 MiB (3%)
Title : English
Language : English
Service kind : Complete Main
Default : Yes
Forced : No



1 个附件 售价 大小 下载 时间

Maximilian.S01.SUBBED.1080p.AMZN.WEBRip.DDP2.0.x264-RCVR[btbtt.me].torrent 0 金币 64.76K 1288 次 6月前

#1楼
发帖时间:2019-02-12 21:55:06   |   回复数:1
911degrees
隐世仙人♂
非常感谢,谢谢分享
6月前 #2楼
游客组