travismk
一代宗师

[2019] [日本] [爱情] [WEB-1080P] 玫瑰与郁金香 Rose.and.Tulip.2019.JAPANESE.1080p.NF.WEBRip.DDP2.0.x264-Imagine 2.96GB

-->

帖子完整标题:玫瑰与郁金香 Rose.and.Tulip.2019.JAPANESE.1080p.NF.WEBRip.DDP2.0.x264-Imagine 2.96GB



◎译  名 玫瑰与郁金香/Rose and Tulip
◎片  名 薔薇とチューリップ
◎年  代 2019
◎产  地 日本
◎类  别 爱情
◎语  言 日语
◎上映日期 2019-05-03(日本)
◎IMDb评分 6.8/10 from 5 users
◎IMDb链接 https://www.imdb.com/title/tt10116478/
◎豆瓣评分 5.3/10 from 112 users
◎豆瓣链接 https://movie.douban.com/subject/30400727/
◎片  长 90分钟
◎导  演 野口照夫 Teruo Noguchi
◎编  剧 祢寝彩木 Saeki Nejime
◎主  演 李俊昊 Jun-ho Lee
      谷村美月 Mitsuki Tanimura
      玄理 Hyunri
      布施绘里 Eri Fuse

◎标  签 李俊昊 | 日本电影 | 日本 | 2019 | 谷村美月 | 玄理 | 爱情 | 成长

◎简  介

  为了举办个展来日的世界级青年现代艺术家NERO,抵达后暗中前去探访了传说中装饰着自己画作的赝品的旅馆,并在那里遇到了与自己长得犹如双胞胎的韩国留学生DAEWON。震惊之余,NERO出于“某个目的”,向DAEWON提出了与自己交换身份的请求。在与旅馆继承人的薰(暂译)接触的过程中开始直面过去的NERO,假扮着时代弄潮儿的同时也在摸索着自我方向的DAEWON,拥有着相同外貌,却有着不同性格不同身份立场的两个人……在他们交换身份的这期间,他们所找到的“真正的自我”到底是?

Video
ID : 1
Format : AVC
Format/Info : Advanced Video Codec
Format profile : [email protected]
Format settings : CABAC / 4 Ref Frames
Format settings, CABAC : Yes
Format settings, Reference frames : 4 frames
Codec ID : V_MPEG4/ISO/AVC
Duration : 1 h 31 min
Bit rate mode : Variable
Bit rate : 4 474 kb/s
Maximum bit rate : 20.0 Mb/s
Width : 1 920 pixels
Height : 1 080 pixels
Display aspect ratio : 16:9
Frame rate mode : Constant
Frame rate : 23.976 (24000/1001/189150) FPS
Color space : YUV
Chroma subsampling : 4:2:0
Bit depth : 8 bits
Scan type : Progressive
Bits/(Pixel*Frame) : 0.090
Stream size : 2.87 GiB (97%)
Writing library : x264 core 148 r2722 1b0121b
Encoding settings : cabac=1 / ref=4 / deblock=1:0:0 / analyse=0x3:0x111 / me=umh / subme=10 / psy=1 / psy_rd=1.00:0.00 / mixed_ref=1 / me_range=120 / chroma_me=1 / trellis=2 / 8x8dct=1 / cqm=0 / deadzone=21,11 / fast_pskip=1 / chroma_qp_offset=-2 / threads=6 / lookahead_threads=1 / sliced_threads=0 / nr=0 / decimate=1 / interlaced=0 / bluray_compat=0 / stitchable=1 / constrained_intra=0 / bframes=16 / b_pyramid=2 / b_adapt=2 / b_bias=0 / direct=3 / weightb=1 / open_gop=0 / weightp=2 / keyint=240 / keyint_min=121 / scenecut=0 / intra_refresh=0 / rc_lookahead=240 / rc=crf / mbtree=1 / crf=16.0 / qcomp=0.50 / qpmin=6 / qpmax=51 / qpstep=4 / vbv_maxrate=20000 / vbv_bufsize=25000 / crf_max=0.0 / nal_hrd=vbr / filler=0 / ip_ratio=1.40 / aq=1:0.80
Default : Yes
Forced : No

Audio
ID : 2
Format : E-AC-3
Format/Info : Enhanced AC-3
Commercial name : Dolby Digital Plus
Codec ID : A_EAC3
Duration : 1 h 31 min
Bit rate mode : Constant
Bit rate : 128 kb/s
Channel(s) : 2 channels
Channel layout : L R
Sampling rate : 48.0 kHz
Frame rate : 31.250 FPS (1536 SPF)
Compression mode : Lossy
Stream size : 84.1 MiB (3%)
Language : Japanese
Service kind : Complete Main
Default : Yes
Forced : No

Text
ID : 3
Format : UTF-8
Codec ID : S_TEXT/UTF8
Codec ID/Info : UTF-8 Plain Text
Duration : 1 h 26 min
Bit rate : 49 b/s
Count of elements : 1060
Stream size : 31.5 KiB (0%)
Language : English
Default : Yes
Forced : No





1 个附件 售价 大小 下载 时间

Rose.and.Tulip.2019.JAPANESE.1080p.NF.WEBRip.DDP2.0.x264-Imagine.zip 0 金币 30.26K 336 次 4天前

#1楼
发帖时间:2021-02-23 12:25:41   |   回复数:0
游客组