travismk
一代宗师

[2016] [韩国] [喜剧] [WEB-1080P] 致命恋爱 Life.Risking.Romance.2016.KOREAN.1080p.AMZN.WEBRip.DDP2.0.x264-MRCS 7.15GB

-->

帖子完整标题:致命恋爱 Life.Risking.Romance.2016.KOREAN.1080p.AMZN.WEBRip.DDP2.0.x264-MRCS 7.15GB



◎译  名 致命恋爱/Life Risking Romance/危险罗曼史(台)
◎片  名 ?? ? ??
◎年  代 2016
◎产  地 韩国
◎类  别 喜剧 / 爱情 / 惊悚
◎语  言 韩语,英语
◎上映日期 2016-06-11(上海电影节) / 2016-12-14(韩国)
◎IMDb评分 5.3/10 from 187 users
◎IMDb链接 https://www.imdb.com/title/tt6343000/
◎豆瓣评分 5.1/10 from 1183 users
◎豆瓣链接 https://movie.douban.com/subject/26348778/
◎片  长 103分钟
◎导  演 宋闵奎 Min-Gyu Song
◎编  剧 金巴达 Ba-da Kim / 宋闵奎 Min-Gyu Song
◎主  演 河智苑 Ji-won Ha
      千正明 Jeong-myeong Cheon
      陈柏霖 Bo-lin Chen
      郑海钧 Hae-kyun Jung
      金元海 Won-hae Kim
      吴政世 Jeong-se Oh
      尹素熙 So-Hee Yoon
      赵炳奎 Byeong-gyu Jo
      李多寅 Da-in Lee
      崔录运 Ro-woon Choi
      宋彩允 Song Chae-yun
      尹敬浩 Kyung-ho Yoon

◎标  签 韩国 | 喜剧 | 爱情 | 悬疑 | 2016 | 犯罪 | 剧情 | 惊悚

◎简  介

  《致命恋爱》是一部围绕连环杀人事件讲述三个男女间的浪漫搞笑故事的电影,融合惊悚、浪漫、幽默多种元素的风格。河智苑扮演热情高涨的推理小说家,一路追踪连环杀人犯。千正明扮演片中河智苑的好朋友,是一名刑警,陈柏霖扮演让女主角脸红心跳的帅气暖男,将与女主角上演一段浪漫情缘。

Video
ID : 1
Format : AVC
Format/Info : Advanced Video Codec
Format profile : [email protected]
Format settings : CABAC / 4 Ref Frames
Format settings, CABAC : Yes
Format settings, Reference frames : 4 frames
Codec ID : V_MPEG4/ISO/AVC
Duration : 1 h 43 min
Bit rate mode : Constant
Bit rate : 10 000 kb/s
Width : 1 920 pixels
Height : 816 pixels
Display aspect ratio : 2.35:1
Frame rate mode : Constant
Frame rate : 23.976 (24000/1001/189150) FPS
Color space : YUV
Chroma subsampling : 4:2:0
Bit depth : 8 bits
Scan type : Progressive
Bits/(Pixel*Frame) : 0.266
Stream size : 6.99 GiB (98%)
Language : English
Default : Yes
Forced : No
Color range : Limited
Color primaries : BT.709
Transfer characteristics : BT.709
Matrix coefficients : BT.709

Audio
ID : 2
Format : E-AC-3
Format/Info : Enhanced AC-3
Commercial name : Dolby Digital Plus
Codec ID : A_EAC3
Duration : 1 h 43 min
Bit rate mode : Constant
Bit rate : 224 kb/s
Channel(s) : 2 channels
Channel layout : L R
Sampling rate : 48.0 kHz
Frame rate : 31.250 FPS (1536 SPF)
Compression mode : Lossy
Stream size : 166 MiB (2%)
Language : Korean
Service kind : Complete Main
Default : Yes
Forced : No

Text
ID : 3
Format : UTF-8
Codec ID : S_TEXT/UTF8
Codec ID/Info : UTF-8 Plain Text
Duration : 1 h 43 min
Bit rate : 42 b/s
Count of elements : 1204
Stream size : 32.4 KiB (0%)
Title : SDH
Language : English
Default : No
Forced : No





1 个附件 售价 大小 下载 时间

Life.Risking.Romance.2016.KOREAN.1080p.AMZN.WEBRip.DDP2.0.x264-MRCS.zip 0 金币 36.47K 504 次 4天前

#1楼
发帖时间:2021-02-23 12:09:40   |   回复数:0
游客组