travismk
一代宗师

[2012] [其他] [喜剧] [BD-1080P] 大厨 The.Chef.2012.1080p.BluRay.x264-NODLABS 6.56GB

-->

帖子完整标题:大厨 The.Chef.2012.1080p.BluRay.x264-NODLABS 6.56GB



◎译  名 大厨/The Chef/一如大厨/三星大厨(港)/王牌大主厨(台)/疯狂大主厨(台)
◎片  名 Comme un Chef
◎年  代 2012
◎产  地 法国,西班牙
◎类  别 喜剧
◎语  言 法语
◎上映日期 2012-03-07(法国)
◎IMDb评分 6.6/10 from 16224 users
◎IMDb链接 https://www.imdb.com/title/tt1911553/
◎豆瓣评分 7.1/10 from 13340 users
◎豆瓣链接 https://movie.douban.com/subject/6731985/
◎片  长 84分钟
◎导  演 丹尼尔·科恩 Daniel Cohen
◎编  剧 丹尼尔·科恩 Daniel Cohen
◎主  演 让·雷诺 Jean Reno
      迈克尔·扬 Micha?l Youn
      朱利安·波义塞利尔 Julien Boisselier
      莎乐梅·斯蒂文宁 Salomé Stévenin
      吕行 Xing Lü
      克里斯多夫·帕欧 Christophe Paou
      拉法埃尔·阿贡吉 Rapha?lle Agogué
      郭超 Chao Guo

◎标  签 法国 | 美食 | 喜剧 | 让雷诺 | 法国电影 | 料理 | 2012 | JeanReno

◎简  介

  德高望重的亚历山大(让·雷诺 Jean Reno 饰)多年来一直是米其林餐厅的三星主厨,但是近来他的境遇却屡现危机。当下的法国料理界正是”分子料理”风靡,传统料理日渐衰落的时代,亚历山大所坚持的传统料理很有可能会在即将到来的星级评审中落败,餐厅的小开更是翘首以盼可以就此炒了他。正当亚历山大焦头烂额之时,一名名不见经传的小厨师杰克(迈克尔·扬 Micha?l Youn 饰)出现了,杰克是亚历山大食谱的忠实追随者,却因对料理的狂热固执屡次失业,只好在养老院找了份油漆工作。一个偶然的机会,亚历山大让杰克到他的餐厅实习,杰克与生俱来的料理天分和另辟蹊径的烹调创意令亚历山大大为赏识,很快成为其左右手。星级评审越来越近,两位传统烹饪大师的合作能否在挑剔的”分子料理”派面前力挽狂澜呢?

Video
ID : 1
Format : AVC
Format/Info : Advanced Video Codec
Format profile : [email protected]
Format settings : CABAC / 5 Ref Frames
Format settings, CABAC : Yes
Format settings, Reference frames : 5 frames
Codec ID : V_MPEG4/ISO/AVC
Duration : 1 h 24 min
Bit rate : 9 596 kb/s
Width : 1 920 pixels
Height : 816 pixels
Display aspect ratio : 2.35:1
Frame rate mode : Constant
Frame rate : 24.000 FPS
Color space : YUV
Chroma subsampling : 4:2:0
Bit depth : 8 bits
Scan type : Progressive
Bits/(Pixel*Frame) : 0.255
Stream size : 5.53 GiB (84%)
Writing library : x264 core 144 r2525 40bb568
Encoding settings : cabac=1 / ref=5 / deblock=1:-3:-3 / analyse=0x3:0x113 / me=umh / subme=8 / psy=1 / psy_rd=1.00:0.00 / mixed_ref=1 / me_range=16 / chroma_me=1 / trellis=1 / 8x8dct=1 / cqm=0 / deadzone=21,11 / fast_pskip=1 / chroma_qp_offset=-2 / threads=18 / lookahead_threads=3 / sliced_threads=0 / nr=0 / decimate=1 / interlaced=0 / bluray_compat=0 / constrained_intra=0 / bframes=3 / b_pyramid=2 / b_adapt=2 / b_bias=0 / direct=3 / weightb=1 / open_gop=0 / weightp=2 / keyint=240 / keyint_min=24 / scenecut=40 / intra_refresh=0 / rc_lookahead=50 / rc=2pass / mbtree=1 / bitrate=9596 / ratetol=1.0 / qcomp=0.60 / qpmin=0 / qpmax=69 / qpstep=4 / cplxblur=20.0 / qblur=0.5 / ip_ratio=1.40 / aq=1:1.00
Language : English
Default : Yes
Forced : No

Audio
ID : 2
Format : DTS
Format/Info : Digital Theater Systems
Codec ID : A_DTS
Duration : 1 h 24 min
Bit rate mode : Constant
Bit rate : 1 509 kb/s
Channel(s) : 6 channels
ChannelLayout_Original : C L R Ls Rs LFE
Sampling rate : 48.0 kHz
Frame rate : 93.750 FPS (512 SPF)
Bit depth : 24 bits
Compression mode : Lossy
Stream size : 912 MiB (14%)
Language : French
Default : Yes
Forced : No

Text
ID : 3
Format : UTF-8
Codec ID : S_TEXT/UTF8
Codec ID/Info : UTF-8 Plain Text
Language : English
Default : Yes
Forced : Yes

Menu
00:00:00.000 : en:00:00:00.000
00:06:43.500 : en:00:06:43.500
00:12:27.833 : en:00:12:27.833
00:15:02.958 : en:00:15:02.958
00:23:37.042 : en:00:23:37.042
00:32:57.083 : en:00:32:57.083
00:41:13.542 : en:00:41:13.542
00:52:53.667 : en:00:52:53.667
01:00:45.750 : en:01:00:45.750
01:08:22.375 : en:01:08:22.375
01:16:12.375 : en:01:16:12.375
01:19:06.625 : en:01:19:06.625





1 个附件 售价 大小 下载 时间

The.Chef.2012.1080p.BluRay.x264-NODLABS.zip 0 金币 66.21K 504 次 1月前

#1楼
发帖时间:2021-01-19 09:55:02   |   回复数:0
游客组