travismk
一代宗师

[2014] [其他] [剧情] [BD-1080P] 廷巴克图 Timbuktu.2014.1080p.BluRay.x264-NODLABS 6.56GB

-->

帖子完整标题:廷巴克图 Timbuktu.2014.1080p.BluRay.x264-NODLABS 6.56GB



◎译  名 廷巴克图/Le chagrin des oiseaux/Tombouctou/在世界尽头呼唤自由(港)/在地图结束的地方(台)/群鸟之悲/通布图
◎片  名 Timbuktu
◎年  代 2014
◎产  地 毛里塔尼亚,法国
◎类  别 剧情
◎语  言 法语,阿拉伯语,班巴拉语,英语,桑海语,图阿雷格语
◎上映日期 2014-05-15(戛纳电影节) / 2014-12-10(法国)
◎IMDb评分 7.1/10 from 16294 users
◎IMDb链接 https://www.imdb.com/title/tt3409392/
◎豆瓣评分 7.0/10 from 3731 users
◎豆瓣链接 https://movie.douban.com/subject/25803933/
◎片  长 97分钟
◎导  演 阿伯德拉马纳·希萨柯 Abderrahmane Sissako
◎编  剧 阿伯德拉马纳·希萨柯 Abderrahmane Sissako / 凯森·托尔 Kessen Tall
◎主  演 易卜拉欣·阿迈德 Ibrahim Ahmed
      阿贝尔·贾夫里 Abel Jafri
      透珞·琪琪 Toulou Kiki
      蕾拉·威勒特·穆罕默德 Layla Walet Mohamed
      梅迪·A·G·穆罕默德 Mehdi A.G. Mohamed
      凯特利·诺埃尔 Kettly No?l
      法图玛塔·迪亚瓦拉 Fatoumata Diawara

◎标  签 法国 | 毛里塔尼亚 | 宗教 | 2014 | 剧情 | 非洲 | 人性 | 戛纳

◎简  介

  陷入宗教极端分子控制下的马里通布图终日遭受圣战分子的迫害“半壁江山都被入侵者占领了”。女性首当其冲。通过讲述 Kidane、Fatima、他们的女儿Toya和Issan,以及他们的小农庄的故事,Abderrahmane Sissako对“被媒体和全世界忽略的”这个地区的恐怖主义表示反对。这位导演用镜头见证了自己心中热爱的萨赫勒地区“男女平民寂静的反抗”,借此揭露现实。

◎获奖情况

  第87届奥斯卡金像奖 ?(2015)
  最佳外语片(提名) 阿伯德拉马纳·希萨柯
  
  第67届戛纳电影节 ?(2014)
  主竞赛单元金棕榈奖(提名) 阿伯德拉马纳·希萨柯
  
  第69届英国电影学院奖 ?(2016)
  电影奖最佳非英语片(提名) 阿伯德拉马纳·希萨柯
  
  第40届法国凯撒电影奖 ?(2015)
  最佳影片 艾蒂安·科马尔?/?西尔维·皮亚拉?/?阿伯德拉马纳·希萨柯
  最佳导演 阿伯德拉马纳·希萨柯
  
  第81届纽约影评人协会奖 ?(2015)
  最佳外语片
  
  第50届美国国家影评人协会奖 ?(2016)
  最佳外语片 阿伯德拉马纳·希萨柯
  
  第18届美国在线影评人协会奖 ?(2014)
  最佳非北美上映影片

Video
ID : 1
Format : AVC
Format/Info : Advanced Video Codec
Format profile : [email protected]
Format settings : CABAC / 5 Ref Frames
Format settings, CABAC : Yes
Format settings, Reference frames : 5 frames
Codec ID : V_MPEG4/ISO/AVC
Duration : 1 h 35 min
Bit rate : 8 283 kb/s
Width : 1 920 pixels
Height : 808 pixels
Display aspect ratio : 2.40:1
Frame rate mode : Constant
Frame rate : 24.000 FPS
Color space : YUV
Chroma subsampling : 4:2:0
Bit depth : 8 bits
Scan type : Progressive
Bits/(Pixel*Frame) : 0.222
Stream size : 5.41 GiB (83%)
Writing library : x264 core 146 r2538 121396c
Encoding settings : cabac=1 / ref=5 / deblock=1:-3:-3 / analyse=0x3:0x113 / me=umh / subme=8 / psy=1 / psy_rd=1.00:0.00 / mixed_ref=1 / me_range=16 / chroma_me=1 / trellis=1 / 8x8dct=1 / cqm=0 / deadzone=21,11 / fast_pskip=1 / chroma_qp_offset=-2 / threads=24 / lookahead_threads=4 / sliced_threads=0 / nr=0 / decimate=1 / interlaced=0 / bluray_compat=0 / constrained_intra=0 / bframes=3 / b_pyramid=2 / b_adapt=2 / b_bias=0 / direct=3 / weightb=1 / open_gop=0 / weightp=2 / keyint=240 / keyint_min=24 / scenecut=40 / intra_refresh=0 / rc_lookahead=50 / rc=2pass / mbtree=1 / bitrate=8283 / ratetol=1.0 / qcomp=0.60 / qpmin=0 / qpmax=69 / qpstep=4 / cplxblur=20.0 / qblur=0.5 / ip_ratio=1.40 / aq=1:1.00
Language : English
Default : Yes
Forced : No

Audio
ID : 2
Format : DTS
Format/Info : Digital Theater Systems
Codec ID : A_DTS
Duration : 1 h 35 min
Bit rate mode : Constant
Bit rate : 1 509 kb/s
Channel(s) : 6 channels
ChannelLayout_Original : C L R Ls Rs LFE
Sampling rate : 48.0 kHz
Frame rate : 93.750 FPS (512 SPF)
Bit depth : 24 bits
Compression mode : Lossy
Stream size : 1.01 GiB (15%)
Language : Arabic
Default : Yes
Forced : No

Text
ID : 3
Format : UTF-8
Codec ID : S_TEXT/UTF8
Codec ID/Info : UTF-8 Plain Text
Language : English
Default : Yes
Forced : Yes

Menu
00:00:00.000 : en:00:00:00.000
00:07:29.917 : en:00:07:29.917
00:17:02.208 : en:00:17:02.208
00:26:49.250 : en:00:26:49.250
00:37:16.958 : en:00:37:16.958
00:44:53.458 : en:00:44:53.458
00:54:41.667 : en:00:54:41.667
01:03:18.000 : en:01:03:18.000
01:16:26.833 : en:01:16:26.833
01:21:37.833 : en:01:21:37.833
01:25:16.542 : en:01:25:16.542
01:32:08.792 : en:01:32:08.792





1 个附件 售价 大小 下载 时间

Timbuktu.2014.1080p.BluRay.x264-NODLABS.zip 0 金币 131.89K 651 次 1月前

#1楼
发帖时间:2021-01-19 09:51:01   |   回复数:0
游客组