travismk
一代宗师

[更 早] [其他] [剧情] [BD-1080P] 雁南飞 The.Cranes.Are.Flying.1957.1080p.BluRay.x264-GHOULS 11.05GB

-->

帖子完整标题:雁南飞 The.Cranes.Are.Flying.1957.1080p.BluRay.x264-GHOULS 11.05GB



◎译  名 雁南飞/Letyat zhuravli/The Cranes Are Flying/仙鹤飞翔/战争与贞操/鹤之舞
◎片  名 Летят журавли
◎年  代 1957
◎产  地 苏联
◎类  别 剧情 / 爱情 / 战争
◎语  言 俄语
◎上映日期 1957-10-12
◎IMDb评分 8.3/10 from 15016 users
◎IMDb链接 https://www.imdb.com/title/tt0050634/
◎豆瓣评分 8.7/10 from 10269 users
◎豆瓣链接 https://movie.douban.com/subject/1302077/
◎片  长 95分钟
◎导  演 米哈依尔·卡拉托佐夫 Mikhail Kalatozov
◎编  剧 维克托·罗佐夫 Viktor Rozov
◎主  演 塔吉娅娜·萨莫依洛娃 Tatyana Samojlova
      阿列克谢·巴塔洛夫 Aleksey Batalov
      瓦西里·梅尔库里耶夫 Vasili Merkuryev
      亚历山大·施沃林 Aleksandr Shvorin
      瓦连京·祖布科夫 Valentin Zubkov
      安东宁娜·波格丹诺娃 Antonina Bogdanova
      鲍里斯·科科夫金 Boris Kokovkin
      Valentina Ananyina
      彼得·梅尔库里耶夫 Pyotr Merkuryev
      丹尼尔·涅特列宾 Daniil Netrebin
      瓦莲京娜·弗拉基米罗娃 Valentina Vladimirova
      斯韦特兰娜·哈里托诺娃 Svetlana Kharitonova

◎标  签 苏联 | 苏联电影 | 爱情 | 战争 | 卡拉托佐夫 | 二战 | 1957 | 俄罗斯

◎简  介

  本部电影讲述身处硝烟弥漫的战争年代,一对热恋中男女青年的悲情爱情故事。薇罗尼卡(塔吉娅娜·萨莫依洛娃 Tatyana Samojlova饰)和鲍里斯(阿勒克塞·巴塔洛夫 Aleksey Batalov饰)本是沉浸在甜蜜热恋中的幸福情侣,可随着战争的爆发,这一切的美好即将 破灭。鲍里斯参军,薇罗尼卡的父母在敌机的轰炸中双亡,悲痛欲绝的她只能寄宿在鲍里斯父亲的家中。鲍里斯的表弟趁机占有了她,薇罗尼卡受到众人指责。双重打击下的薇罗尼卡本想一死了之,可心中仍苦苦等待着鲍里斯的归来。当得知鲍里斯牺牲的消息后,薇罗尼卡彻底绝望了。战争结束,当所有人都在庆祝胜利的时候,薇罗尼卡也双手捧着鲜花来到广场上。这时,一行大雁在空中飞过,就像当初的美好时光一样。
  
  本片一经问世,就轰动了整个世界影坛,以其绝美的光影对比,绝佳的镜头运用,一举荣获1958年戛纳国际电影节金棕榈奖和摄影大奖。

◎获奖情况

  第11届戛纳电影节 ?(1958)
  主竞赛单元金棕榈奖 米哈依尔·卡拉托佐夫
  SpecialMention 塔吉娅娜·萨莫依洛娃

Video
ID : 1
Format : AVC
Format/Info : Advanced Video Codec
Format profile : [email protected]
Format settings : CABAC / 5 Ref Frames
Format settings, CABAC : Yes
Format settings, Reference frames : 5 frames
Codec ID : V_MPEG4/ISO/AVC
Duration : 1 h 36 min
Bit rate : 15.7 Mb/s
Width : 1 480 pixels
Height : 1 080 pixels
Display aspect ratio : 1.370
Frame rate mode : Constant
Frame rate : 23.976 (24000/1001/189150) FPS
Color space : YUV
Chroma subsampling : 4:2:0
Bit depth : 8 bits
Scan type : Progressive
Bits/(Pixel*Frame) : 0.410
Stream size : 10.6 GiB (96%)
Writing library : x264 core 160 r3000 33f9e14
Encoding settings : cabac=1 / ref=5 / deblock=1:-3:-3 / analyse=0x3:0x133 / me=umh / subme=10 / psy=1 / psy_rd=1.50:0.15 / mixed_ref=1 / me_range=24 / chroma_me=1 / trellis=2 / 8x8dct=1 / cqm=0 / deadzone=21,11 / fast_pskip=0 / chroma_qp_offset=-3 / threads=24 / lookahead_threads=4 / sliced_threads=0 / nr=0 / decimate=0 / interlaced=0 / bluray_compat=0 / constrained_intra=0 / bframes=8 / b_pyramid=2 / b_adapt=2 / b_bias=0 / direct=3 / weightb=1 / open_gop=0 / weightp=2 / keyint=250 / keyint_min=23 / scenecut=40 / intra_refresh=0 / rc=crf / mbtree=0 / crf=17.0 / qcomp=0.60 / qpmin=0 / qpmax=69 / qpstep=4 / ip_ratio=1.40 / pb_ratio=1.30 / aq=3:0.50
Default : Yes
Forced : No
Color range : Limited
Matrix coefficients : BT.709

Audio
ID : 2
Format : FLAC
Format/Info : Free Lossless Audio Codec
Codec ID : A_FLAC
Duration : 1 h 36 min
Bit rate mode : Variable
Bit rate : 605 kb/s
Channel(s) : 1 channel
Channel layout : C
Sampling rate : 48.0 kHz
Frame rate : 11.719 FPS (4096 SPF)
Bit depth : 24 bits
Compression mode : Lossless
Stream size : 419 MiB (4%)
Writing library : libFLAC 1.3.2 (UTC 2017-01-01)
Language : Russian
Default : Yes
Forced : No

Text #1
ID : 3
Format : UTF-8
Codec ID : S_TEXT/UTF8
Codec ID/Info : UTF-8 Plain Text
Duration : 1 h 36 min
Bit rate : 36 b/s
Count of elements : 970
Stream size : 25.7 KiB (0%)
Title : English (Forced)
Language : English
Default : Yes
Forced : Yes

Text #2
ID : 4
Format : PGS
Muxing mode : zlib
Codec ID : S_HDMV/PGS
Codec ID/Info : Picture based subtitle format used on BDs/HD-DVDs
Duration : 1 h 36 min
Bit rate : 32.6 kb/s
Count of elements : 1940
Stream size : 22.5 MiB (0%)
Language : English
Default : No
Forced : No

Menu
00:00:00.000 : en:Chapter 01
00:07:49.761 : en:Chapter 02
00:13:32.228 : en:Chapter 03
00:19:41.806 : en:Chapter 04
00:26:02.603 : en:Chapter 05
00:34:12.050 : en:Chapter 06
00:45:06.704 : en:Chapter 07
00:54:26.263 : en:Chapter 08
01:02:38.254 : en:Chapter 09
01:09:14.609 : en:Chapter 10
01:15:55.843 : en:Chapter 11
01:20:38.917 : en:Chapter 12
01:24:42.077 : en:Chapter 13
01:29:07.342 : en:Chapter 14





1 个附件 售价 大小 下载 时间

The.Cranes.Are.Flying.1957.1080p.BluRay.x264-GHOULS.zip 0 金币 55.99K 602 次 1月前

#1楼
发帖时间:2021-01-19 09:49:07   |   回复数:0
游客组