travismk
一代宗师

[更 早] [欧美] [剧情] [BD-1080P] 下班后/业余时间 After.Hours.1985.1080p.BluRay.x264.FLAC.2.0-WMD 9.81GB

-->

帖子完整标题:下班后/业余时间 After.Hours.1985.1080p.BluRay.x264.FLAC.2.0-WMD 9.81GB



◎译  名 下班后/业余时间/八小时之外
◎片  名 After Hours
◎年  代 1985
◎产  地 美国
◎类  别 剧情 / 喜剧 / 惊悚
◎语  言 英语
◎上映日期 1985-09-13
◎IMDb评分 7.7/10 from 59168 users
◎IMDb链接 https://www.imdb.com/title/tt0088680/
◎豆瓣评分 8.2/10 from 6259 users
◎豆瓣链接 https://movie.douban.com/subject/1303531/
◎片  长 97 分钟
◎导  演 马丁·斯科塞斯 Martin Scorsese
◎编  剧 约瑟夫·米恩 Joseph Minion
◎主  演 格里芬·邓恩 Griffin Dunne
      罗姗娜·阿奎特 Rosanna Arquette
      汤米·钟 Tommy Chong
      弗娜·布鲁姆 Verna Bloom
      琳达·费奥伦蒂诺 Linda Fiorentino
      特瑞·加尔 Teri Garr
      约翰·赫德 John Heard
      马丁·斯科塞斯 Martin Scorsese
      威尔·帕顿 Will Patton
      斯蒂芬·林 Stephen Lim

◎标  签 马丁·斯科塞斯 | 美国 | 黑色幽默 | 喜剧 | 1985 | MartinScorsese | 悬疑 | 美国电影

◎简  介

  电脑文书保罗(Griffin Dunne 饰)下班后去餐厅宵夜,他手上的《北回归线》让邻座的神秘女子玛西(Rosanna Arquette 饰)上前搭讪,玛西留下电话号码,并向他介绍与自己合租的女雕塑家琦琦。保罗为追求一段艳遇,在午夜时分拨通了玛西的电话,玛西家中因纸糊雕塑显得凌乱不堪,她本人则急于喋喋不休的倾诉,让保罗无法得逞,保罗不能忍受那个没有露脸的男人“富兰克林”与玛西的神经质表现,在急欲返家之时,却又卷入了连串麻烦,与酒吧老板、酒吧女招待、朋克青年们、两名窃贼、开冰激凌车的女青年等等纠缠不清,似乎在这个夜里,所有人都在妨碍保罗回家。
  
  本片获1986年戛纳电影节最佳导演奖,1986年独立精神将最佳导演奖。

◎获奖情况

  第39届戛纳电影节 ?(1986)
  主竞赛单元金棕榈奖(提名) 马丁·斯科塞斯
  主竞赛单元最佳导演 马丁·斯科塞斯

Video
ID : 1
Format : AVC
Format/Info : Advanced Video Codec
Format profile : [email protected]
Format settings : CABAC / 4 Ref Frames
Format settings, CABAC : Yes
Format settings, Reference frames : 4 frames
Codec ID : V_MPEG4/ISO/AVC
Duration : 1 h 37 min
Bit rate : 14.0 Mb/s
Width : 1 920 pixels
Height : 1 080 pixels
Display aspect ratio : 16:9
Frame rate mode : Constant
Frame rate : 23.976 (24000/1001/189150) FPS
Color space : YUV
Chroma subsampling : 4:2:0
Bit depth : 8 bits
Scan type : Progressive
Bits/(Pixel*Frame) : 0.281
Stream size : 9.49 GiB (97%)
Title : After.Hours.1985.1080p.BluRay.FLAC.2.0.x264-WMD
Writing library : x264 core 161 r3027+52M 541aa21 devel [(8 & 10)[email protected] X86_64]
Encoding settings : cabac=1 / ref=4 / deblock=1:-3:-3 / analyse=0x3:0x133 / me=umh / subme=10 / psy=1 / fade_compensate=0.00 / psy_rd=1.05:0.00 / mixed_ref=1 / me_range=32 / chroma_me=1 / trellis=2 / 8x8dct=1 / cqm=0 / deadzone=21,11 / fast_pskip=0 / chroma_qp_offset=-2 / threads=12 / lookahead_threads=2 / sliced_threads=0 / nr=0 / decimate=0 / interlaced=0 / bluray_compat=0 / constrained_intra=0 / fgo=0 / bframes=8 / b_pyramid=2 / b_adapt=2 / b_bias=0 / direct=3 / weightb=1 / open_gop=0 / weightp=2 / keyint=250 / keyint_min=23 / scenecut=40 / intra_refresh=0 / rc_lookahead=60 / rc=crf / mbtree=0 / crf=17.2000 / qcomp=0.65 / qpmin=0:0:0 / qpmax=69:69:69 / qpstep=4 / vbv_maxrate=62500 / vbv_bufsize=78125 / crf_max=0.0 / nal_hrd=none / filler=0 / ip_ratio=1.40 / pb_ratio=1.30 / aq=3:0.75 / aq-sensitivity=10.00 / aq-factor=1.00:1.00:1.00 / aq2=0 / aq3=0
Language : English
Default : Yes
Forced : No
Color range : Limited
Color primaries : BT.709
Matrix coefficients : BT.709

Audio
ID : 2
Format : FLAC
Format/Info : Free Lossless Audio Codec
Codec ID : A_FLAC
Duration : 1 h 37 min
Bit rate mode : Variable
Bit rate : 481 kb/s
Channel(s) : 2 channels
Channel layout : L R
Sampling rate : 48.0 kHz
Frame rate : 11.719 FPS (4096 SPF)
Bit depth : 16 bits
Compression mode : Lossless
Stream size : 334 MiB (3%)
Writing library : libFLAC 1.3.3 (UTC 2019-08-04)
Language : English
Default : Yes
Forced : No

Text
ID : 3
Format : UTF-8
Codec ID : S_TEXT/UTF8
Codec ID/Info : UTF-8 Plain Text
Duration : 1 h 31 min
Bit rate : 56 b/s
Count of elements : 1075
Stream size : 37.8 KiB (0%)
Language : English
Default : Yes
Forced : No

Menu
00:00:00.000 : en:Credits
00:01:13.434 : en:Marcy & Miller
00:06:03.501 : en:Rendezvous Plan
00:08:42.634 : en:Out the Window
00:10:49.535 : en:Sculpting with Kiki
00:13:57.769 : en:Relaxing Massage
00:17:03.603 : en:Mercurial Marcy
00:21:26.803 : en:True Confessions
00:25:34.671 : en:Different Rules Apply
00:29:08.639 : en:His Paperweight Need
00:32:58.906 : en:Too Much for a Token
00:34:56.507 : en:Slow Night at the Terminal Bar
00:40:51.774 : en:Burglary Suspects
00:43:10.341 : en:The Undisciplined and the Dead
00:49:02.042 : en:\"Like the Monkees?\"
00:51:59.342 : en:Jittery Julie
00:55:19.842 : en:Terminal News
00:58:30.009 : en:The Perfect Gift
01:00:52.209 : en:Stop, Thief
01:03:49.811 : en:Mohawk Night
01:06:53.011 : en:Gail\'s Numbing Numbers
01:12:55.044 : en:\"You\'re Dead, Pal\"
01:15:09.144 : en:Recap Rant
01:19:27.444 : en:Desperation in the Diner
01:22:13.078 : en:Is That All There Is?
01:27:42.845 : en:Getting Plastered
01:31:21.000 : en:\"Art is Forever\"
01:34:02.000 : en:End Credits





1 个附件 售价 大小 下载 时间

After.Hours.1985.1080p.BluRay.x264.FLAC.2.0-WMD.zip 0 金币 49.73K 833 次 1月前

#1楼
发帖时间:2021-01-19 09:43:55   |   回复数:1
liyouchai
隐世仙人♂
谢谢楼主分享资源
1月前 #2楼
游客组