travismk
一代宗师

[更 早] [其他] [剧情] [BD-1080P] 澳洲爵士春秋 Dingo.1991.1080p.BluRay.x264-HANDJOB 9.49GB

-->

帖子完整标题:澳洲爵士春秋 Dingo.1991.1080p.BluRay.x264-HANDJOB 9.49GB



◎译  名 澳洲爵士春秋
◎片  名 Dingo
◎年  代 1991
◎产  地 澳大利亚,法国
◎类  别 剧情 / 音乐
◎语  言 英语
◎上映日期 1991-12
◎IMDb评分 6.9/10 from 313 users
◎IMDb链接 https://www.imdb.com/title/tt0104109/
◎豆瓣评分 /10 from 0 users
◎豆瓣链接 https://movie.douban.com/subject/2031542/
◎片  长 109 分钟
◎导  演 洛夫·德·希尔 Rolf de Heer
◎编  剧 马克·罗森伯格 Marc Rosenberg
◎主  演 科林·弗瑞尔斯 Colin Friels
      迈尔斯·戴维斯 Miles Davis
      布丽吉特·卡蒂永 Brigitte Catillon
      贝尔纳·弗雷松 Bernard Fresson
      贝纳德特·拉封 Bernadette Lafont
      汉斯·迈尔 Hans Meyer
      本·莫特利 Ben Mortley
      Helen Buday

◎标  签 爵士电影 | 澳大利亚 | 传记 | 音乐 | 爵士 | %JAZZ | Miles-Davis | 音樂

◎简  介

  1969年2月的某一夜一架噴射機在澳洲鄉野小鎮外圍的平原上盤旋不去,12歲的約翰?安德生,綽號野狗,因為他自任自己的叫聲像野狗一樣,和一群鄉土小民一起蜂湧而至,彷若來的是飛碟一樣。在這裡,野狗聽見一隻爵士樂團正在演奏,美妙得叫他一輩子也難以忘懷,第二天他醒來,樂團和噴射機皆化為塵土彷若一場科幻的夢一樣。轉眼20年過去了。他結了婚有了小孩了,他想這輩子就要完蛋了,他不甘心,於是他緊追自己最後一絲夢幻,他買了機票到達巴黎。他開始漫無目標的在各大城市找尋比利?克羅思和他的樂團。但60年代早已飛逝了,他也有多年未曾公眾演奏了,整個世界早已進入另一個新的星球裡。野狗再也難以辨認他了,但有一天他進入吧裡,聽見了小喇叭的聲音,是的,聲音又開始召換他了。這時他的幻夢不再只是童稚的癡人囈語。於是他動身……《澳洲爵士春秋》終於圓了導演多年的夢,因為飾演比利的正是爵士大王邁爾斯·戴維斯(Miles Davis),這是他接近死亡之前的天鵝之歌。

Video
ID : 1
Format : AVC
Format/Info : Advanced Video Codec
Format profile : [email protected]
Format settings : CABAC / 5 Ref Frames
Format settings, CABAC : Yes
Format settings, Reference frames : 5 frames
Codec ID : V_MPEG4/ISO/AVC
Duration : 1 h 49 min
Bit rate : 11.7 Mb/s
Width : 1 920 pixels
Height : 804 pixels
Display aspect ratio : 2.40:1
Frame rate mode : Constant
Frame rate : 23.976 (24000/1001/189150) FPS
Color space : YUV
Chroma subsampling : 4:2:0
Bit depth : 8 bits
Scan type : Progressive
Bits/(Pixel*Frame) : 0.317
Stream size : 9.00 GiB (95%)
Writing library : x264 core 157 r2935 545de2f
Encoding settings : cabac=1 / ref=5 / deblock=1:-3:-3 / analyse=0x3:0x133 / me=umh / subme=10 / psy=1 / psy_rd=1.00:0.00 / mixed_ref=1 / me_range=32 / chroma_me=1 / trellis=2 / 8x8dct=1 / cqm=0 / deadzone=21,11 / fast_pskip=0 / chroma_qp_offset=-2 / threads=25 / lookahead_threads=6 / sliced_threads=0 / nr=0 / decimate=0 / interlaced=0 / bluray_compat=0 / constrained_intra=0 / bframes=16 / b_pyramid=2 / b_adapt=2 / b_bias=0 / direct=3 / weightb=1 / open_gop=0 / weightp=2 / keyint=240 / keyint_min=24 / scenecut=40 / intra_refresh=0 / rc_lookahead=60 / rc=crf / mbtree=0 / crf=19.0 / qcomp=0.60 / qpmin=0 / qpmax=69 / qpstep=4 / vbv_maxrate=62500 / vbv_bufsize=78125 / crf_max=0.0 / nal_hrd=none / filler=0 / ip_ratio=1.40 / pb_ratio=1.30 / aq=2:1.00
Default : Yes
Forced : No
Color range : Limited
Color primaries : BT.709
Transfer characteristics : BT.709
Matrix coefficients : BT.709

Audio
ID : 2
Format : AC-3
Format/Info : Audio Coding 3
Commercial name : Dolby Digital
Codec ID : A_AC3
Duration : 1 h 49 min
Bit rate mode : Constant
Bit rate : 640 kb/s
Channel(s) : 6 channels
Channel layout : L R C LFE Ls Rs
Sampling rate : 48.0 kHz
Frame rate : 31.250 FPS (1536 SPF)
Compression mode : Lossy
Stream size : 503 MiB (5%)
Language : English
Service kind : Complete Main
Default : Yes
Forced : No

Text
ID : 3
Format : UTF-8
Codec ID : S_TEXT/UTF8
Codec ID/Info : UTF-8 Plain Text
Duration : 1 h 44 min
Bit rate : 30 b/s
Count of elements : 911
Stream size : 23.7 KiB (0%)
Title : SDH
Language : English
Default : No
Forced : No

Menu
00:00:00.000 : :Opening Credits
00:02:45.707 : :\"My Name Is Billy Cross\"
00:14:15.855 : :John \"Dingo\" Anderson
00:20:55.713 : :You\'re A Dreamer
00:37:01.511 : :\"I Finally Bloody Did It\"
00:52:32.191 : :Dingo And The Dusters
01:00:30.836 : :\"No One Was Expecting It\"
01:04:53.390 : :No Guts, No Glory
01:13:49.050 : :\"He Wants To Meet You\"
01:25:01.555 : :A Jazz Museum Piece
01:31:15.387 : :Dogs Of The Desert
01:46:12.032 : :End Credits





1 个附件 售价 大小 下载 时间

Dingo.1991.1080p.BluRay.x264-HANDJOB.zip 0 金币 48.07K 203 次 1月前

#1楼
发帖时间:2021-01-19 09:42:04   |   回复数:0
游客组