travismk
一代宗师

[更 早] [其他] [喜剧] [BD-1080P] 七月十四日 July.14.1933.FRENCH.1080p.BluRay.x264-HANDJOB 7.96GB

-->

帖子完整标题:七月十四日 July.14.1933.FRENCH.1080p.BluRay.x264-HANDJOB 7.96GB



◎译  名 七月十四日
◎片  名 Quatorze Juillet
◎年  代 1933
◎产  地 法国
◎类  别 喜剧 / 爱情
◎语  言 法语
◎上映日期 1933-01-13
◎IMDb评分 7/10 from 330 users
◎IMDb链接 https://www.imdb.com/title/tt0024480/
◎豆瓣评分 /10 from 0 users
◎豆瓣链接 https://movie.douban.com/subject/3026902/
◎片  长 86 分钟
◎导  演 雷内·克莱尔 René Clair
◎编  剧 雷内·克莱尔 René Clair
◎主  演 乔治·里戈 George Rigaud
      雷蒙·科尔迪 Raymond Cordy
      保罗·奥利维耶 Paul Ollivier
      雷蒙德·阿摩司 Raymond Aimos
      安娜贝拉 Annabella

◎标  签 雷内·克莱尔 | 法国 | 诗意现实主义 | 1933 | 法国诗意现实主义 | 黑白 | 法国电影 | RenéClair

◎简  介

  Jean is a young cab driver. Anna, a flower-girl neighbour, is in love with him. But he is still thinking to Pola, who just left him. Jean asks her to the bal. Many events (Pola's come back, two villains...) will disturb this arising love.

Video
ID : 1
Format : AVC
Format/Info : Advanced Video Codec
Format profile : [email protected]
Format settings : CABAC / 5 Ref Frames
Format settings, CABAC : Yes
Format settings, Reference frames : 5 frames
Codec ID : V_MPEG4/ISO/AVC
Duration : 1 h 32 min
Bit rate : 12.2 Mb/s
Width : 1 294 pixels
Height : 1 080 pixels
Display aspect ratio : 1.198
Frame rate mode : Constant
Frame rate : 23.976 (24000/1001/189150) FPS
Color space : YUV
Chroma subsampling : 4:2:0
Bit depth : 8 bits
Scan type : Progressive
Bits/(Pixel*Frame) : 0.363
Stream size : 7.85 GiB (99%)
Writing library : x264 core 157 r2935 545de2f
Encoding settings : cabac=1 / ref=5 / deblock=1:-3:-3 / analyse=0x3:0x133 / me=umh / subme=10 / psy=1 / psy_rd=1.00:0.00 / mixed_ref=1 / me_range=32 / chroma_me=1 / trellis=2 / 8x8dct=1 / cqm=0 / deadzone=21,11 / fast_pskip=0 / chroma_qp_offset=-2 / threads=18 / lookahead_threads=4 / sliced_threads=0 / nr=0 / decimate=0 / interlaced=0 / bluray_compat=0 / constrained_intra=0 / bframes=16 / b_pyramid=2 / b_adapt=2 / b_bias=0 / direct=3 / weightb=1 / open_gop=0 / weightp=2 / keyint=240 / keyint_min=24 / scenecut=40 / intra_refresh=0 / rc_lookahead=60 / rc=crf / mbtree=0 / crf=21.2 / qcomp=0.60 / qpmin=0 / qpmax=69 / qpstep=4 / vbv_maxrate=62500 / vbv_bufsize=78125 / crf_max=0.0 / nal_hrd=none / filler=0 / ip_ratio=1.40 / pb_ratio=1.30 / aq=2:1.00
Language : French
Default : Yes
Forced : No
Color range : Limited
Color primaries : BT.709
Transfer characteristics : BT.709
Matrix coefficients : BT.709

Audio
ID : 2
Format : AAC LC
Format/Info : Advanced Audio Codec Low Complexity
Codec ID : A_AAC-2
Duration : 1 h 32 min
Bit rate : 137 kb/s
Channel(s) : 2 channels
Channel layout : L R
Sampling rate : 48.0 kHz
Frame rate : 46.875 FPS (1024 SPF)
Compression mode : Lossy
Stream size : 90.4 MiB (1%)
Language : French
Default : Yes
Forced : No

Text #1
ID : 3
Format : UTF-8
Codec ID : S_TEXT/UTF8
Codec ID/Info : UTF-8 Plain Text
Duration : 1 h 29 min
Bit rate : 32 b/s
Count of elements : 901
Stream size : 21.3 KiB (0%)
Language : English
Default : Yes
Forced : No

Text #2
ID : 4
Format : PGS
Muxing mode : zlib
Codec ID : S_HDMV/PGS
Codec ID/Info : Picture based subtitle format used on BDs/HD-DVDs
Duration : 1 h 28 min
Bit rate : 50.5 kb/s
Count of elements : 2709
Stream size : 32.1 MiB (0%)
Language : Japanese
Default : No
Forced : No

Menu
00:00:00.000 : :Chapter 1
00:00:23.565 : :Chapter 2
00:10:31.714 : :Chapter 3
00:28:07.060 : :Chapter 4
00:49:36.932 : :Chapter 5
01:06:21.728 : :Chapter 6
01:17:58.799 : :Chapter 7





1 个附件 售价 大小 下载 时间

July.14.1933.FRENCH.1080p.BluRay.x264-HANDJOB.zip 0 金币 40.46K 609 次 1月前

#1楼
发帖时间:2021-01-19 09:39:31   |   回复数:0
游客组