travismk
一代宗师

[更 早] [其他] [剧情] [BD-1080P] 马赛曲 La.Marseillaise.1938.1080p.BluRay.x264-USURY 19.50GB

-->

帖子完整标题:马赛曲 La.Marseillaise.1938.1080p.BluRay.x264-USURY 19.50GB



◎译  名 马赛曲
◎片  名 La Marseillaise
◎年  代 1938
◎产  地 法国
◎类  别 剧情 / 音乐 / 历史 / 战争
◎语  言 法语,德语
◎上映日期 1938-02-02
◎IMDb评分 7.1/10 from 1035 users
◎IMDb链接 https://www.imdb.com/title/tt0030424/
◎豆瓣评分 7.3/10 from 223 users
◎豆瓣链接 https://movie.douban.com/subject/1465063/
◎片  长 135 分钟
◎导  演 让·雷诺阿 Jean Renoir
◎编  剧 让·雷诺阿 Jean Renoir

◎标  签 法国 | 让·雷诺阿 | 法国电影 | JeanRenoir | 历史 | 1930s | Jean_Renoir | 1938

◎简  介

  在法王路易十六时期,各种社会矛盾日益激化,新兴的资产阶级同情农民疾苦,受到巴黎雅各宾派的影响,阿尔诺带领马赛港的市民设计夺取了要塞,得到了武器,并驱逐了公爵,他们举行集会通过决议组织500名义勇军进军巴黎去搭救同情改革的议员,马赛市民积极参军,高唱着马赛曲向进发。途中他们受到了拥护共和的人民的欢迎也和顽固的保皇党进行了战斗,到达巴黎后,他们汇入了革命者的队伍,1792年8月10日,巴黎人民在雅各宾派的领导下,终于推翻了路易十六王朝,赢得了政权交替的胜利,揭开了法国大革命的序幕,而这个时期创作的进军歌曲《马赛曲》也成为了鼓舞斗志的赞歌。

Video
ID : 1
Format : AVC
Format/Info : Advanced Video Codec
Format profile : [email protected]
Format settings : CABAC / 5 Ref Frames
Format settings, CABAC : Yes
Format settings, Reference frames : 5 frames
Codec ID : V_MPEG4/ISO/AVC
Duration : 2 h 11 min
Bit rate : 20.3 Mb/s
Width : 1 432 pixels
Height : 1 080 pixels
Display aspect ratio : 4:3
Frame rate mode : Constant
Frame rate : 23.976 (24000/1001/189150) FPS
Color space : YUV
Chroma subsampling : 4:2:0
Bit depth : 8 bits
Scan type : Progressive
Bits/(Pixel*Frame) : 0.548
Stream size : 18.7 GiB (96%)
Writing library : x264 core 161 r3027 4121277
Encoding settings : cabac=1 / ref=5 / deblock=1:-3:-3 / analyse=0x3:0x133 / me=umh / subme=10 / psy=1 / psy_rd=1.00:0.15 / mixed_ref=1 / me_range=24 / chroma_me=1 / trellis=2 / 8x8dct=1 / cqm=0 / deadzone=21,11 / fast_pskip=1 / chroma_qp_offset=-3 / threads=18 / lookahead_threads=3 / sliced_threads=0 / nr=0 / decimate=1 / interlaced=0 / bluray_compat=0 / constrained_intra=0 / bframes=8 / b_pyramid=2 / b_adapt=2 / b_bias=0 / direct=3 / weightb=1 / open_gop=0 / weightp=2 / keyint=250 / keyint_min=23 / scenecut=40 / intra_refresh=0 / rc_lookahead=60 / rc=crf / mbtree=1 / crf=21.3 / qcomp=0.60 / qpmin=0 / qpmax=69 / qpstep=4 / ip_ratio=1.40 / aq=3:0.50
Language : English
Default : Yes
Forced : No

Audio #1
ID : 2
Format : FLAC
Format/Info : Free Lossless Audio Codec
Codec ID : A_FLAC
Duration : 2 h 11 min
Bit rate mode : Variable
Bit rate : 725 kb/s
Channel(s) : 2 channels
Channel layout : L R
Sampling rate : 48.0 kHz
Frame rate : 11.719 FPS (4096 SPF)
Bit depth : 24 bits
Compression mode : Lossless
Stream size : 684 MiB (3%)
Writing library : libFLAC 1.2.1 (UTC 2007-09-17)
Language : French
Default : Yes
Forced : No

Audio #2
ID : 3
Format : AAC LC
Format/Info : Advanced Audio Codec Low Complexity
Codec ID : A_AAC-2
Duration : 2 h 11 min
Bit rate : 84.7 kb/s
Channel(s) : 2 channels
Channel layout : L R
Sampling rate : 48.0 kHz
Frame rate : 46.875 FPS (1024 SPF)
Compression mode : Lossy
Delay relative to video : 9 ms
Stream size : 79.9 MiB (0%)
Title : English Commentary by Nick Pinkerton
Language : English
Default : No
Forced : No

Text #1
ID : 4
Format : UTF-8
Codec ID : S_TEXT/UTF8
Codec ID/Info : UTF-8 Plain Text
Duration : 2 h 11 min
Bit rate : 56 b/s
Count of elements : 1565
Stream size : 54.5 KiB (0%)
Title : English
Language : English
Default : Yes
Forced : Yes

Text #2
ID : 5
Format : PGS
Muxing mode : zlib
Codec ID : S_HDMV/PGS
Codec ID/Info : Picture based subtitle format used on BDs/HD-DVDs
Duration : 2 h 11 min
Bit rate : 44.8 kb/s
Count of elements : 3130
Stream size : 42.0 MiB (0%)
Title : English
Language : English
Default : No
Forced : No

Menu
00:00:00.000 : en:00:00:00.000
00:10:19.452 : en:00:10:19.452
00:26:08.275 : en:00:26:08.275
00:37:33.209 : en:00:37:33.209
00:50:32.738 : en:00:50:32.738
01:04:57.560 : en:01:04:57.560
01:15:33.863 : en:01:15:33.863
01:27:36.334 : en:01:27:36.334
01:42:33.773 : en:01:42:33.773
01:59:03.970 : en:01:59:03.970





1 个附件 售价 大小 下载 时间

La.Marseillaise.1938.1080p.BluRay.x264-USURY.zip 0 金币 98.19K 315 次 1月前

#1楼
发帖时间:2021-01-19 09:37:45   |   回复数:0
游客组