travismk
一代宗师

[2019] [其他] [剧情] [BD-1080P] 错会半生/不爱钢琴师 Lara.2019.GERMAN.1080p.BluRay.x264-HANDJOB 6.36GB

-->

帖子完整标题:错会半生/不爱钢琴师 Lara.2019.GERMAN.1080p.BluRay.x264-HANDJOB 6.36GB



◎译  名 错会半生/不爱钢琴师(台)/拉腊
◎片  名 Lara
◎年  代 2019
◎产  地 德国
◎类  别 剧情
◎语  言 德语
◎上映日期 2019-06-30(卡罗维发利电影节) / 2019-11-07(德国)
◎IMDb评分 7.1/10 from 1238 users
◎IMDb链接 https://www.imdb.com/title/tt7275830/
◎豆瓣评分 7.5/10 from 1185 users
◎豆瓣链接 https://movie.douban.com/subject/27102546/
◎片  长 96分钟
◎导  演 扬·奥勒·格斯特 Jan Ole Gerster
◎编  剧 扬·奥勒·格斯特 Jan Ole Gerster
◎主  演 汤姆·希林 Tom Schilling
      科琳娜·哈弗奇 Corinna Harfouch
      希尔德加德·斯罗德 Hildegard Schroedter
      Susanne Bredeh?ft
      斯特芬·金斯 Steffen Jürgens

◎标  签 德国 | 家庭 | 剧情 | 德国电影 | 2019 | 汤姆希林 | 德國 | TomSchilling

◎简  介

  曾被誉为天才钢琴手的拉娜,为了相夫教子放弃了大好前程,却没料到此后人生却不如计画中的顺利。在六十岁生日当天,也是她的儿子维特首场钢琴独奏会,当发现儿子没有邀请她,反而离异多年的老公和新女友被受邀前往时,她暗自准备一场行动,让这个寻常却又特别的日子,有个出人意料的开始,而随著独奏会时间逼近,也慢慢揭露三人之间多年未解的伤痕。

◎获奖情况

  第54届卡罗维发利国际电影节 ?(2019)
  水晶地球仪奖评委会特别奖 扬·奥勒·格斯特
  水晶地球仪奖最佳女演员 科琳娜·哈弗奇
  水晶地球仪奖(提名) 扬·奥勒·格斯特
  宗教人道奖 扬·奥勒·格斯特

Video
ID : 1
Format : AVC
Format/Info : Advanced Video Codec
Format profile : [email protected]
Format settings : CABAC / 5 Ref Frames
Format settings, CABAC : Yes
Format settings, Reference frames : 5 frames
Codec ID : V_MPEG4/ISO/AVC
Duration : 1 h 38 min
Bit rate : 8 613 kb/s
Width : 1 920 pixels
Height : 804 pixels
Display aspect ratio : 2.40:1
Frame rate mode : Constant
Frame rate : 24.000 FPS
Color space : YUV
Chroma subsampling : 4:2:0
Bit depth : 8 bits
Scan type : Progressive
Bits/(Pixel*Frame) : 0.232
Stream size : 5.92 GiB (93%)
Writing library : x264 core 155 r2917 0a84d98
Encoding settings : cabac=1 / ref=5 / deblock=1:-3:-3 / analyse=0x3:0x133 / me=umh / subme=10 / psy=1 / psy_rd=1.00:0.00 / mixed_ref=1 / me_range=32 / chroma_me=1 / trellis=2 / 8x8dct=1 / cqm=0 / deadzone=21,11 / fast_pskip=0 / chroma_qp_offset=-2 / threads=25 / lookahead_threads=6 / sliced_threads=0 / nr=0 / decimate=0 / interlaced=0 / bluray_compat=0 / constrained_intra=0 / bframes=16 / b_pyramid=2 / b_adapt=2 / b_bias=0 / direct=3 / weightb=1 / open_gop=0 / weightp=1 / keyint=240 / keyint_min=24 / scenecut=40 / intra_refresh=0 / rc_lookahead=60 / rc=crf / mbtree=0 / crf=14.0 / qcomp=0.60 / qpmin=0 / qpmax=69 / qpstep=4 / vbv_maxrate=62500 / vbv_bufsize=78125 / crf_max=0.0 / nal_hrd=none / filler=0 / ip_ratio=1.40 / pb_ratio=1.30 / aq=1:0.70
Default : Yes
Forced : No
Color range : Limited
Color primaries : BT.709
Transfer characteristics : BT.709
Matrix coefficients : BT.709

Audio
ID : 2
Format : AC-3
Format/Info : Audio Coding 3
Commercial name : Dolby Digital
Codec ID : A_AC3
Duration : 1 h 38 min
Bit rate mode : Constant
Bit rate : 640 kb/s
Channel(s) : 6 channels
Channel layout : L R C LFE Ls Rs
Sampling rate : 48.0 kHz
Frame rate : 31.250 FPS (1536 SPF)
Compression mode : Lossy
Stream size : 450 MiB (7%)
Language : German
Service kind : Complete Main
Default : Yes
Forced : No

Text #1
ID : 3
Format : UTF-8
Codec ID : S_TEXT/UTF8
Codec ID/Info : UTF-8 Plain Text
Duration : 1 h 31 min
Bit rate : 34 b/s
Count of elements : 781
Stream size : 23.1 KiB (0%)
Language : English
Default : Yes
Forced : No

Text #2
ID : 4
Format : UTF-8
Codec ID : S_TEXT/UTF8
Codec ID/Info : UTF-8 Plain Text
Duration : 1 h 35 min
Bit rate : 39 b/s
Count of elements : 909
Stream size : 27.3 KiB (0%)
Language : German
Default : No
Forced : No

Menu
00:00:00.000 : :Chapter 1
00:10:37.917 : :Chapter 2
00:19:46.500 : :Chapter 3
00:30:52.292 : :Chapter 4
00:42:00.417 : :Chapter 5
00:49:16.417 : :Chapter 6
00:58:38.792 : :Chapter 7
01:07:31.000 : :Chapter 8
01:20:59.000 : :Chapter 9
01:29:13.292 : :Chapter 10





1 个附件 售价 大小 下载 时间

Lara.2019.GERMAN.1080p.BluRay.x264-HANDJOB.zip 0 金币 32.44K 560 次 1月前

#1楼
发帖时间:2021-01-19 08:44:06   |   回复数:1
亚瑟王
一派掌门
这电影不错
1月前 #2楼
游客组