travismk
一代宗师

[2020] [欧美] [剧情] [BD-1080P] 新王加冕 Born.a.Champion.2021.1080p.BluRay.x264.DTS-FGT 10.12GB

-->

帖子完整标题:新王加冕 Born.a.Champion.2021.1080p.BluRay.x264.DTS-FGT 10.12GB



◎译  名 新王加冕/Mickey Kelley
◎片  名 Born a Champion
◎年  代 2020
◎产  地 美国
◎类  别 剧情 / 动作
◎语  言 英语
◎上映日期 2021-01-22(美国)
◎IMDb链接 https://www.imdb.com/title/tt10661710/
◎豆瓣评分 /10 from 0 users
◎豆瓣链接 https://movie.douban.com/subject/34884701/
◎导  演 亚历克斯·兰阿瑞佛罗 Alex Ranarivelo
◎编  剧 肖恩·派特里克·弗兰纳里 Sean Patrick Flanery / 亚历克斯·兰阿瑞佛罗 Alex Ranarivelo
◎主  演 丹尼斯·奎德 Dennis Quaid
      卡特里娜·宝登 Katrina Bowden
      肖恩·派特里克·弗兰纳里 Sean Patrick Flanery
      库里·格拉汉姆 Currie Graham

◎标  签 音 | 电影

◎简  介

  Mickey Kelley ,one of the first American black belts in Brazilian jiu-jitsu, who gets pulled away from everything he loves and into an unsanctioned MMA tournament.

Video
ID : 1
Format : AVC
Format/Info : Advanced Video Codec
Format profile : [email protected]
Format settings : CABAC / 4 Ref Frames
Format settings, CABAC : Yes
Format settings, Reference frames : 4 frames
Codec ID : V_MPEG4/ISO/AVC
Duration : 1 h 51 min
Bit rate : 11.5 Mb/s
Width : 1 920 pixels
Height : 800 pixels
Display aspect ratio : 2.40:1
Frame rate mode : Constant
Frame rate : 23.976 (24000/1001/189150) FPS
Color space : YUV
Chroma subsampling : 4:2:0
Bit depth : 8 bits
Scan type : Progressive
Bits/(Pixel*Frame) : 0.312
Stream size : 8.94 GiB (88%)
Writing library : x264 core 148 r2748 97eaef2
Encoding settings : cabac=1 / ref=4 / deblock=1:-2:-2 / analyse=0x3:0x113 / me=umh / subme=9 / psy=1 / psy_rd=1.00:0.15 / mixed_ref=1 / me_range=16 / chroma_me=1 / trellis=2 / 8x8dct=1 / cqm=0 / deadzone=21,11 / fast_pskip=1 / chroma_qp_offset=-3 / threads=72 / lookahead_threads=3 / sliced_threads=0 / nr=0 / decimate=1 / interlaced=0 / bluray_compat=0 / constrained_intra=0 / bframes=3 / b_pyramid=2 / b_adapt=1 / b_bias=0 / direct=3 / weightb=1 / open_gop=0 / weightp=2 / keyint=250 / keyint_min=25 / scenecut=40 / intra_refresh=0 / rc_lookahead=50 / rc=2pass / mbtree=1 / bitrate=11500 / ratetol=1.0 / qcomp=0.60 / qpmin=0 / qpmax=69 / qpstep=4 / cplxblur=20.0 / qblur=0.5 / vbv_maxrate=31250 / vbv_bufsize=31250 / nal_hrd=none / filler=0 / ip_ratio=1.40 / aq=1:1.00
Language : English
Default : Yes
Forced : No

Audio
ID : 2
Format : DTS
Format/Info : Digital Theater Systems
Codec ID : A_DTS
Duration : 1 h 51 min
Bit rate mode : Constant
Bit rate : 1 509 kb/s
Channel(s) : 6 channels
Channel layout : C L R Ls Rs LFE
Sampling rate : 48.0 kHz
Frame rate : 93.750 FPS (512 SPF)
Bit depth : 24 bits
Compression mode : Lossy
Stream size : 1.18 GiB (12%)
Title : DTS 5.1
Language : English
Default : Yes
Forced : No

Text
ID : 3
Format : UTF-8
Codec ID : S_TEXT/UTF8
Codec ID/Info : UTF-8 Plain Text
Duration : 1 h 46 min
Bit rate : 73 b/s
Count of elements : 1691
Stream size : 57.8 KiB (0%)
Title : English-SRT
Language : English
Default : Yes
Forced : No

Menu
00:00:00.000 : en:Chapter 01
00:09:07.547 : en:Chapter 02
00:16:48.924 : en:Chapter 03
00:22:37.773 : en:Chapter 04
00:28:46.766 : en:Chapter 05
00:33:09.988 : en:Chapter 06
00:38:53.372 : en:Chapter 07
00:49:13.450 : en:Chapter 08
00:55:45.550 : en:Chapter 09
01:01:05.870 : en:Chapter 10
01:08:13.881 : en:Chapter 11
01:14:09.778 : en:Chapter 12
01:20:16.311 : en:Chapter 13
01:26:21.301 : en:Chapter 14
01:30:38.099 : en:Chapter 15
01:45:46.673 : en:Chapter 16





1 个附件 售价 大小 下载 时间

Born.a.Champion.2021.1080p.BluRay.x264.DTS-FGT.zip 0 金币 51.26K 749 次 1月前

#1楼
发帖时间:2021-01-18 20:35:31   |   回复数:0
游客组