travismk
一代宗师

[2020] [欧美] [恐怖] [BD-1080P] 来玩 Come.Play.2020.1080p.BluRay.x264.DTS-FGT 8.77GB

-->

帖子完整标题:来玩 Come.Play.2020.1080p.BluRay.x264.DTS-FGT 8.77GB



◎译  名 来玩/Larry/怪奇默友(港)/拉里/鬼游戏(台)
◎片  名 Come Play
◎年  代 2020
◎产  地 美国
◎类  别 恐怖 / 家庭 / 奇幻
◎语  言 英语
◎上映日期 2020-10-30(美国)
◎IMDb评分 5.7/10 from 6055 users
◎IMDb链接 https://www.imdb.com/title/tt8004664/
◎豆瓣评分 6.1/10 from 2567 users
◎豆瓣链接 https://movie.douban.com/subject/30465104/
◎片  长 97分钟
◎导  演 雅各布·蔡斯 Jacob Chase
◎编  剧 雅各布·蔡斯 Jacob Chase
◎主  演 艾奇·罗伯逊 Azhy Robertson
      吉莉安·雅各布斯 Gillian Jacobs
      小约翰·加拉赫 John Gallagher Jr.
      温斯洛·费格雷 Winslow Fegley
      杰登·马林 Jayden Marine
      加文·麦基弗·赖特 Gavin MacIver-Wright
      蕾切尔·威尔森 Rachel Wilson
      阿拉娜·阿什利·马奎斯 Alana-Ashley Marques
      达尔默·阿泽德 Dalmar Abuzeid
      伊斯汗·莫里斯 Ishan Morris
      安娜·阿劳约 Ana Araujo
      埃博妮·布斯 Eboni Booth

◎标  签 恐怖 | 惊悚 | 美国 | 怪物 | 2020 | 电影 | 家庭 | 短片改编

◎简  介

  孤单的小男孩Olive(艾奇·罗伯逊 饰),他觉得自己处处异于其他人。他很想要交朋友,于是他花很多时间在手机和平版上。当一个神秘的生物想要透过Oliver的手机和平板来进入我们的世界,Oliver的父母(吉莉安·雅各布斯 Gillia nJacobs、小约翰·加拉赫 John Gallagher Jr. 饰)必须挺身而出,将儿子从神秘生物的手中救出。

Video
ID : 1
Format : AVC
Format/Info : Advanced Video Codec
Format profile : [email protected]
Format settings : CABAC / 4 Ref Frames
Format settings, CABAC : Yes
Format settings, Reference frames : 4 frames
Codec ID : V_MPEG4/ISO/AVC
Duration : 1 h 36 min
Bit rate : 11.5 Mb/s
Width : 1 920 pixels
Height : 804 pixels
Display aspect ratio : 2.40:1
Frame rate mode : Constant
Frame rate : 23.976 (24000/1001/189150) FPS
Color space : YUV
Chroma subsampling : 4:2:0
Bit depth : 8 bits
Scan type : Progressive
Bits/(Pixel*Frame) : 0.311
Stream size : 7.75 GiB (88%)
Writing library : x264 core 148 r2795M aaa9aa8
Encoding settings : cabac=1 / ref=4 / deblock=1:-2:-2 / analyse=0x3:0x113 / me=umh / subme=9 / psy=1 / psy_rd=1.00:0.15 / mixed_ref=1 / me_range=16 / chroma_me=1 / trellis=2 / 8x8dct=1 / cqm=0 / deadzone=21,11 / fast_pskip=1 / chroma_qp_offset=-3 / threads=24 / lookahead_threads=3 / sliced_threads=0 / nr=0 / decimate=1 / interlaced=0 / bluray_compat=0 / constrained_intra=0 / bframes=3 / b_pyramid=2 / b_adapt=1 / b_bias=0 / direct=3 / weightb=1 / open_gop=0 / weightp=2 / keyint=250 / keyint_min=25 / scenecut=40 / intra_refresh=0 / rc_lookahead=50 / rc=2pass / mbtree=1 / bitrate=11500 / ratetol=1.0 / qcomp=0.60 / qpmin=0 / qpmax=69 / qpstep=4 / cplxblur=20.0 / qblur=0.5 / vbv_maxrate=31250 / vbv_bufsize=31250 / nal_hrd=none / filler=0 / ip_ratio=1.40 / aq=1:1.00
Language : English
Default : Yes
Forced : No

Audio
ID : 2
Format : DTS
Format/Info : Digital Theater Systems
Codec ID : A_DTS
Duration : 1 h 36 min
Bit rate mode : Constant
Bit rate : 1 509 kb/s
Channel(s) : 6 channels
Channel layout : C L R Ls Rs LFE
Sampling rate : 48.0 kHz
Frame rate : 93.750 FPS (512 SPF)
Bit depth : 24 bits
Compression mode : Lossy
Stream size : 1.02 GiB (12%)
Title : DTS 5.1
Language : English
Default : Yes
Forced : No

Text
ID : 3
Format : UTF-8
Codec ID : S_TEXT/UTF8
Codec ID/Info : UTF-8 Plain Text
Duration : 1 h 31 min
Bit rate : 32 b/s
Count of elements : 773
Stream size : 21.6 KiB (0%)
Title : English-SRT
Language : English
Default : Yes
Forced : No

Menu
00:00:00.000 : en:Chapter 1
00:03:50.856 : en:Chapter 2
00:09:51.007 : en:Chapter 3
00:15:32.223 : en:Chapter 4
00:18:03.165 : en:Chapter 5
00:23:24.403 : en:Chapter 6
00:28:58.028 : en:Chapter 7
00:37:23.241 : en:Chapter 8
00:43:15.843 : en:Chapter 9
00:48:22.942 : en:Chapter 10
00:50:11.217 : en:Chapter 11
00:56:25.507 : en:Chapter 12
00:58:37.764 : en:Chapter 13
01:02:21.029 : en:Chapter 14
01:07:30.171 : en:Chapter 15
01:12:48.739 : en:Chapter 16
01:20:33.495 : en:Chapter 17
01:27:21.445 : en:Chapter 18
01:29:42.419 : en:Chapter 19
01:32:22.203 : en:Chapter 20





1 个附件 售价 大小 下载 时间

Come.Play.2020.1080p.BluRay.x264.DTS-FGT.zip 0 金币 44.48K 749 次 1月前

#1楼
发帖时间:2021-01-18 20:28:52   |   回复数:0
游客组