travismk
一代宗师

[2020] [欧美] [剧情] [BD-1080P] 笼中斗兽 Cagefighter.2020.1080p.BluRay.x264-UNVEiL 8.53GB

-->

帖子完整标题:笼中斗兽 Cagefighter.2020.1080p.BluRay.x264-UNVEiL 8.53GB



◎译  名 笼中斗兽
◎片  名 Cagefighter: Worlds Collide
◎年  代 2020
◎产  地 美国
◎类  别 剧情 / 动作 / 运动
◎语  言 英语
◎上映日期 2020-10-09(美国)
◎IMDb评分 4.2/10 from 352 users
◎IMDb链接 https://www.imdb.com/title/tt5505992/
◎豆瓣评分 4.9/10 from 98 users
◎豆瓣链接 https://movie.douban.com/subject/30483396/
◎主  演 吉娜·格申 Gina Gershon
      迈克尔·加·怀特 Michael Jai White
      米歇尔·雷恩 Michelle Ryan

◎标  签 动作 | 美国 | 2020 | 剧情 | 美国电影 | 电影 | 体育 | [歐美]

◎简  介

  Cagefighter follows mixed martial arts champion Reiss (Herdman) who unexpectedly loses a heavily promoted match to Randy Stone, a WWE star who is making his crossover debut in the MMA fighting world.

Video
ID : 1
Format : AVC
Format/Info : Advanced Video Codec
Format profile : [email protected]
Format settings : CABAC / 5 Ref Frames
Format settings, CABAC : Yes
Format settings, Reference frames : 5 frames
Codec ID : V_MPEG4/ISO/AVC
Duration : 1 h 38 min
Bit rate : 10.5 Mb/s
Width : 1 920 pixels
Height : 804 pixels
Display aspect ratio : 2.40:1
Frame rate mode : Constant
Frame rate : 23.976 (24000/1001/189150) FPS
Color space : YUV
Chroma subsampling : 4:2:0
Bit depth : 8 bits
Scan type : Progressive
Bits/(Pixel*Frame) : 0.285
Stream size : 7.23 GiB (85%)
Writing library : x264 core 161 r3027 4121277
Encoding settings : cabac=1 / ref=5 / deblock=1:-3:-3 / analyse=0x3:0x133 / me=umh / subme=9 / psy=1 / psy_rd=1.00:0.00 / mixed_ref=1 / me_range=16 / chroma_me=1 / trellis=2 / 8x8dct=1 / cqm=0 / deadzone=21,11 / fast_pskip=0 / chroma_qp_offset=-2 / threads=25 / lookahead_threads=2 / sliced_threads=0 / nr=0 / decimate=1 / interlaced=0 / bluray_compat=0 / constrained_intra=0 / bframes=3 / b_pyramid=2 / b_adapt=2 / b_bias=0 / direct=3 / weightb=1 / open_gop=0 / weightp=2 / keyint=250 / keyint_min=23 / scenecut=40 / intra_refresh=0 / rc_lookahead=60 / rc=crf / mbtree=1 / crf=17.0 / qcomp=0.60 / qpmin=0 / qpmax=69 / qpstep=4 / ip_ratio=1.40 / aq=1:1.00
Language : English
Default : Yes
Forced : No

Audio
ID : 2
Format : DTS XLL
Format/Info : Digital Theater Systems
Commercial name : DTS-HD Master Audio
Codec ID : A_DTS
Duration : 1 h 38 min
Bit rate mode : Variable
Bit rate : 1 868 kb/s
Channel(s) : 6 channels
Channel layout : C L R Ls Rs LFE
Sampling rate : 48.0 kHz
Frame rate : 93.750 FPS (512 SPF)
Bit depth : 16 bits
Compression mode : Lossless
Stream size : 1.28 GiB (15%)
Language : English
Default : Yes
Forced : No

Text
ID : 3
Format : PGS
Muxing mode : zlib
Codec ID : S_HDMV/PGS
Codec ID/Info : Picture based subtitle format used on BDs/HD-DVDs
Duration : 1 h 36 min
Bit rate : 47.7 kb/s
Count of elements : 3762
Stream size : 32.9 MiB (0%)
Language : German
Default : No
Forced : No

Menu
00:00:00.000 : en:Chapter 01
00:06:11.496 : en:Chapter 02
00:14:29.535 : en:Chapter 03
00:22:18.003 : en:Chapter 04
00:34:04.334 : en:Chapter 05
00:40:25.173 : en:Chapter 06
00:45:56.629 : en:Chapter 07
00:54:48.368 : en:Chapter 08
01:03:15.625 : en:Chapter 09
01:15:09.088 : en:Chapter 10
01:27:42.966 : en:Chapter 11
01:33:36.319 : en:Chapter 12





1 个附件 售价 大小 下载 时间

Cagefighter.2020.1080p.BluRay.x264-UNVEiL.zip 0 金币 43.37K 1424 次 1月前

#1楼
发帖时间:2021-01-18 18:04:39   |   回复数:0
游客组