travismk
一代宗师

[更 早] [其他] [其他] [BD-1080P] 冰刀 Knife.of.Ice.1972.ITALIAN.1080p.BluRay.x264.FLAC.2.0-NOGRP 14.18GB

-->

帖子完整标题:冰刀 Knife.of.Ice.1972.ITALIAN.1080p.BluRay.x264.FLAC.2.0-NOGRP 14.18GB



◎译  名 冰刀/Knife of Ice/Silent Horror
◎片  名 Il coltello di ghiaccio
◎年  代 1972
◎产  地 意大利,西班牙
◎类  别 悬疑 / 犯罪
◎语  言 意大利语
◎上映日期 1972-08-24
◎IMDb评分 6.1/10 from 642 users
◎IMDb链接 https://www.imdb.com/title/tt0068394/
◎豆瓣评分 /10 from 0 users
◎豆瓣链接 https://movie.douban.com/subject/1758802/
◎片  长 91 分钟
◎导  演 翁贝托·伦齐 Umberto Lenzi
◎编  剧 翁贝托·伦齐 Umberto Lenzi
◎主  演 Consalvo Dell'Arti
      卡拉·曼奇尼 Carla Mancini
      卢克·斯波利班尼 Luca Sportelli
      艾伦·斯科特 Alan Scott
      乔治·里戈 George Rigaud
      马里奥·帕尔多 Mario Pardo
      阿佳塔·利斯 ágata Lys
      卡罗尔·贝克 Carroll Baker
      伊妲·伽利 Ida Galli
      Olga Gherardi
      Beni Deus
      爱德华多·法哈多 Eduardo Fajardo
      达达·甘洛蒂 Dada Gallotti

◎标  签 Giallo | 意大利电影 | 意大利 | 卡洛尔·贝克 | 西班牙 | 犯罪 | 1972 | 美国电影

◎简  介

  This early 70's giallo by Umberto Lenzi is certainly among the best in his filmography and also in the whole genre. Personally I think Lenzi's best films are the funny cartoon-turned-film Kriminal, the stylish giallo Seven Blood-Stained Orchids, the explosive Napoli violenta and this. In the eighties he did plenty of film trash in form of Eaten Alive, Hitcher in the Dark or Black Demons, all of which are ripping something off and/or very dull and slow moving. Knife of Ice came when the giallo boom was at its hottest and the result is convincing.
  
  Technically the film is superb, containing great cinematography in the beginning when we learn about the main character's trauma towards trains. From this point on, Lenzi shows us his ability to benefit the widescreen and, for example, the bicycle ride near the forest is genuinely beautiful! This scene also shows Lenzi's ability to build suspense, very slowly but meaningfully. After all, there aren't so many murders in the whole film, only the suspense circulating around the murderer's identity.
  
  One suspect is a devil worshipper which brings new aspects to the mystery. Since the final scene takes place in a church, one can wonder if Lenzi wanted to comment on something, maybe the hypocritical morale of church and superstition. The main character (Carrol Baker) is mute which demands a lot from her face and eyes. The actress works very well, giving us a believable performance circulating around the emotions of fear and mental pain. The other actors are good, too. The finally, however, may not give too positive a sight about female sex since they all are expressed rather negatively in the film, one way or another. Still this is easily among the most noteworthy in the genre, not as bloody as the Argento films, for example, but equally suspenseful and visually also interesting.

Video
ID : 1
Format : AVC
Format/Info : Advanced Video Codec
Format profile : [email protected]
Format settings : CABAC / 4 Ref Frames
Format settings, CABAC : Yes
Format settings, Reference frames : 4 frames
Codec ID : V_MPEG4/ISO/AVC
Duration : 1 h 31 min
Bit rate : 21.6 Mb/s
Width : 1 920 pixels
Height : 872 pixels
Display aspect ratio : 2.2:1
Frame rate mode : Constant
Frame rate : 23.976 (24000/1001/189150) FPS
Color space : YUV
Chroma subsampling : 4:2:0
Bit depth : 8 bits
Scan type : Progressive
Bits/(Pixel*Frame) : 0.537
Stream size : 13.8 GiB (97%)
Writing library : x264 core 161 r3027 4121277
Encoding settings : cabac=1 / ref=4 / deblock=1:-3:-3 / analyse=0x3:0x133 / me=umh / subme=10 / psy=1 / psy_rd=1.00:0.00 / mixed_ref=1 / me_range=32 / chroma_me=1 / trellis=2 / 8x8dct=1 / cqm=0 / deadzone=21,11 / fast_pskip=0 / chroma_qp_offset=-2 / threads=24 / lookahead_threads=6 / sliced_threads=0 / nr=0 / decimate=1 / interlaced=0 / bluray_compat=0 / constrained_intra=0 / bframes=16 / b_pyramid=2 / b_adapt=2 / b_bias=0 / direct=3 / weightb=1 / open_gop=0 / weightp=2 / keyint=250 / keyint_min=23 / scenecut=40 / intra_refresh=0 / rc_lookahead=250 / rc=crf / mbtree=1 / crf=18.0 / qcomp=0.60 / qpmin=0 / qpmax=69 / qpstep=4 / vbv_maxrate=62500 / vbv_bufsize=78125 / crf_max=0.0 / nal_hrd=none / filler=0 / ip_ratio=1.40 / aq=2:1.00
Language : English
Default : Yes
Forced : No

Audio #1
ID : 2
Format : FLAC
Format/Info : Free Lossless Audio Codec
Codec ID : A_FLAC
Duration : 1 h 31 min
Bit rate mode : Variable
Bit rate : 270 kb/s
Channel(s) : 2 channels
Channel layout : L R
Sampling rate : 48.0 kHz
Frame rate : 11.719 FPS (4096 SPF)
Bit depth : 16 bits
Compression mode : Lossless
Stream size : 177 MiB (1%)
Writing library : libFLAC 1.2.1 (UTC 2007-09-17)
Language : English
Default : Yes
Forced : No

Audio #2
ID : 3
Format : FLAC
Format/Info : Free Lossless Audio Codec
Codec ID : A_FLAC
Duration : 1 h 31 min
Bit rate mode : Variable
Bit rate : 314 kb/s
Channel(s) : 2 channels
Channel layout : L R
Sampling rate : 48.0 kHz
Frame rate : 11.719 FPS (4096 SPF)
Bit depth : 16 bits
Compression mode : Lossless
Stream size : 206 MiB (1%)
Writing library : libFLAC 1.2.1 (UTC 2007-09-17)
Language : Italian
Default : No
Forced : No

Text #1
ID : 4
Format : UTF-8
Codec ID : S_TEXT/UTF8
Codec ID/Info : UTF-8 Plain Text
Duration : 1 h 31 min
Bit rate : 47 b/s
Count of elements : 1068
Stream size : 32.0 KiB (0%)
Language : English
Default : Yes
Forced : No

Text #2
ID : 5
Format : UTF-8
Codec ID : S_TEXT/UTF8
Codec ID/Info : UTF-8 Plain Text
Duration : 1 h 27 min
Bit rate : 46 b/s
Count of elements : 713
Stream size : 29.7 KiB (0%)
Language : English
Default : No
Forced : No

Menu
00:00:00.000 : en:Chapter 01
00:08:38.852 : en:Chapter 02
00:17:36.305 : en:Chapter 03
00:27:55.424 : en:Chapter 04
00:39:35.373 : en:Chapter 05
00:50:38.661 : en:Chapter 06
00:59:56.968 : en:Chapter 07
01:08:37.280 : en:Chapter 08
01:16:23.954 : en:Chapter 09
01:25:37.591 : en:Chapter 10





1 个附件 售价 大小 下载 时间

Knife.of.Ice.1972.ITALIAN.1080p.BluRay.x264.FLAC.2.0-NOGRP.zip 0 金币 71.58K 182 次 1月前

#1楼
发帖时间:2021-01-18 08:31:16   |   回复数:1
亚瑟王
一派掌门
谢谢楼主分享
1月前 #2楼
游客组