travismk
一代宗师

[2020] [欧美] [剧情] [BD-1080P] 六分钟到午夜 Six.Minutes.to.Midnight.2020.1080p.BluRay.x264.DTS-HD.MA.5.1-FGT 10.85GB

-->

帖子完整标题:六分钟到午夜 Six.Minutes.to.Midnight.2020.1080p.BluRay.x264.DTS-HD.MA.5.1-FGT 10.85GB



◎译  名 六分钟到午夜/12 Minutes to Midnight/午夜密令(台)
◎片  名 Six Minutes To Midnight
◎年  代 2020
◎产  地 英国
◎类  别 剧情
◎上映日期 2020-05-29(英国)
◎IMDb评分 5.5/10 from 165 users
◎IMDb链接 https://www.imdb.com/title/tt5114840/
◎豆瓣评分 /10 from 0 users
◎豆瓣链接 https://movie.douban.com/subject/30151045/
◎导  演 安迪·戈达德 Andy Goddard
◎编  剧 安迪·戈达德 Andy Goddard / 艾迪·伊扎德 Eddie Izzard / 塞林·琼斯 Celyn Jones
◎主  演 朱迪·丹奇 Judi Dench
      詹姆斯·达西 James D'Arcy
      吉姆·布劳德本特 Jim Broadbent
      艾迪·伊扎德 Eddie Izzard
      大卫·斯科菲尔德 David Schofield
      奈杰尔·林赛 Nigel Lindsay
      卡拉·朱里 Carla Juri
      凯文·埃尔登 Kevin Eldon
      鲁珀特·霍利迪-埃文斯 Rupert Holliday-Evans
      玛丽亚·德拉格斯 Maria Dragus
      塞林·琼斯 Celyn Jones
      安得烈·拜伦 Andrew Byron
      乔·伯恩 Joe Bone
      塞缪尔·拉什 Samuel Rush

◎标  签 詹姆斯·达西 | 朱迪·丹奇 | 剧情 | 2020 | 英国电影 | 英国 | 艾迪·伊扎德 | 惊悚

◎简  介

  朱迪·丹奇商谈加盟惊悚片《6分钟到午夜》(Six Minutes To Midnight),此前艾迪·伊扎德已确定主演。安迪·高达(《唐顿庄园》《燃烧星辰》)执导,伊扎德与塞林·琼斯编写剧本,伊扎德饰演文学和语言老师托马斯·米勒,父母是英国/德国人,他为德国女子联盟教授课程。二战将临,米勒在与联盟领导、希特勒的忠实拥趸起冲突之后,被诬陷是德国间谍并牵扯到谋杀案中。丹奇将饰演严厉女校长Rocholl,在米勒逃亡的过程中对其提供帮助。

Video
ID : 1
Format : AVC
Format/Info : Advanced Video Codec
Format profile : [email protected]
Format settings : CABAC / 4 Ref Frames
Format settings, CABAC : Yes
Format settings, Reference frames : 4 frames
Codec ID : V_MPEG4/ISO/AVC
Duration : 1 h 39 min
Bit rate : 11.5 Mb/s
Width : 1 920 pixels
Height : 804 pixels
Display aspect ratio : 2.40:1
Frame rate mode : Constant
Frame rate : 24.000 FPS
Color space : YUV
Chroma subsampling : 4:2:0
Bit depth : 8 bits
Scan type : Progressive
Bits/(Pixel*Frame) : 0.310
Stream size : 7.98 GiB (74%)
Writing library : x264 core 148 r2748 97eaef2
Encoding settings : cabac=1 / ref=4 / deblock=1:-2:-2 / analyse=0x3:0x113 / me=umh / subme=9 / psy=1 / psy_rd=1.00:0.15 / mixed_ref=1 / me_range=16 / chroma_me=1 / trellis=2 / 8x8dct=1 / cqm=0 / deadzone=21,11 / fast_pskip=1 / chroma_qp_offset=-3 / threads=24 / lookahead_threads=3 / sliced_threads=0 / nr=0 / decimate=1 / interlaced=0 / bluray_compat=0 / constrained_intra=0 / bframes=3 / b_pyramid=2 / b_adapt=1 / b_bias=0 / direct=3 / weightb=1 / open_gop=0 / weightp=2 / keyint=250 / keyint_min=25 / scenecut=40 / intra_refresh=0 / rc_lookahead=50 / rc=2pass / mbtree=1 / bitrate=11500 / ratetol=1.0 / qcomp=0.60 / qpmin=0 / qpmax=69 / qpstep=4 / cplxblur=20.0 / qblur=0.5 / vbv_maxrate=31250 / vbv_bufsize=31250 / nal_hrd=none / filler=0 / ip_ratio=1.40 / aq=1:1.00
Language : English
Default : Yes
Forced : No

Audio
ID : 2
ID in the original source medium : 4353 (0x1101)
Format : DTS XLL
Format/Info : Digital Theater Systems
Commercial name : DTS-HD Master Audio
Codec ID : A_DTS
Duration : 1 h 39 min
Bit rate mode : Variable
Bit rate : 4 125 kb/s
Channel(s) : 6 channels
Channel layout : C L R Ls Rs LFE
Sampling rate : 48.0 kHz
Frame rate : 93.750 FPS (512 SPF)
Bit depth : 24 bits
Compression mode : Lossless
Stream size : 2.86 GiB (26%)
Title : DTS-HD MA 5.1
Language : English
Default : Yes
Forced : No
Original source medium : Blu-ray

Menu
00:00:00.000 : en:Chapter 01
00:06:18.208 : en:Chapter 02
00:15:55.083 : en:Chapter 03
00:24:33.583 : en:Chapter 04
00:30:56.500 : en:Chapter 05
00:42:16.041 : en:Chapter 06
00:52:46.166 : en:Chapter 07
01:01:24.625 : en:Chapter 08
01:09:20.041 : en:Chapter 09
01:18:03.333 : en:Chapter 10
01:28:05.458 : en:Chapter 11
01:30:38.583 : en:Chapter 12





1 个附件 售价 大小 下载 时间

Six.Minutes.to.Midnight.2020.1080p.BluRay.x264.DTS-HD.MA.5.1-FGT.zip 0 金币 54.92K 497 次 1月前

#1楼
发帖时间:2021-01-17 09:57:20   |   回复数:1
liyouchai
隐世仙人♂
谢谢楼主分享资源
1月前 #2楼
游客组