travismk
一代宗师

[2020] [其他] [其他] [BD-1080P] ARI历险记:我的机器人朋友 The.Adventure.Of.A.R.I.My.Robot.Friend.2020.1080p.BluRay.x264.DTS

-->

帖子完整标题:ARI历险记:我的机器人朋友 The.Adventure.Of.A.R.I.My.Robot.Friend.2020.1080p.BluRay.x264.DTS-HD.MA.5.1-FGT 8.47GB



◎译  名 ARI历险记:我的机器人朋友/The Adventure of A.R.I. - The Robot Pet
◎片  名 The Adventure of A.R.I.: My Robot Friend
◎年  代 2020
◎产  地 法国
◎类  别 家庭
◎语  言 英语
◎上映日期 2020-03-10(美国)
◎IMDb评分 4.3/10 from 204 users
◎IMDb链接 https://www.imdb.com/title/tt9578746/
◎豆瓣评分 /10 from 0 users
◎豆瓣链接 https://movie.douban.com/subject/34989686/
◎主  演 Bill Jenkins
      杰瑞米·米勒 Jeremy Miller

◎标  签 法国 | [歐美]

◎简  介

  十几岁的少年鼓起勇气帮助一个被称为ARI的友好机器人,该机器人被无情的实验室主任绑架,他为一家强大的公司工作,该公司试图将他变成危险的武器以统治世界。

Video
ID : 1
Format : AVC
Format/Info : Advanced Video Codec
Format profile : [email protected]
Format settings : CABAC / 4 Ref Frames
Format settings, CABAC : Yes
Format settings, Reference frames : 4 frames
Codec ID : V_MPEG4/ISO/AVC
Duration : 1 h 29 min
Bit rate : 11.5 Mb/s
Width : 1 920 pixels
Height : 804 pixels
Display aspect ratio : 2.40:1
Frame rate mode : Constant
Frame rate : 23.976 (24000/1001/189150) FPS
Color space : YUV
Chroma subsampling : 4:2:0
Bit depth : 8 bits
Scan type : Progressive
Bits/(Pixel*Frame) : 0.311
Stream size : 7.18 GiB (85%)
Writing library : x264 core 148 r2748 97eaef2
Encoding settings : cabac=1 / ref=4 / deblock=1:-2:-2 / analyse=0x3:0x113 / me=umh / subme=9 / psy=1 / psy_rd=1.00:0.15 / mixed_ref=1 / me_range=16 / chroma_me=1 / trellis=2 / 8x8dct=1 / cqm=0 / deadzone=21,11 / fast_pskip=1 / chroma_qp_offset=-3 / threads=24 / lookahead_threads=3 / sliced_threads=0 / nr=0 / decimate=1 / interlaced=0 / bluray_compat=0 / constrained_intra=0 / bframes=3 / b_pyramid=2 / b_adapt=1 / b_bias=0 / direct=3 / weightb=1 / open_gop=0 / weightp=2 / keyint=250 / keyint_min=25 / scenecut=40 / intra_refresh=0 / rc_lookahead=50 / rc=2pass / mbtree=1 / bitrate=11500 / ratetol=1.0 / qcomp=0.60 / qpmin=0 / qpmax=69 / qpstep=4 / cplxblur=20.0 / qblur=0.5 / vbv_maxrate=31250 / vbv_bufsize=31250 / nal_hrd=none / filler=0 / ip_ratio=1.40 / aq=1:1.00
Language : English
Default : Yes
Forced : No

Audio
ID : 2
Format : DTS XLL
Format/Info : Digital Theater Systems
Commercial name : DTS-HD Master Audio
Codec ID : A_DTS
Duration : 1 h 29 min
Bit rate mode : Variable
Bit rate : 2 070 kb/s
Channel(s) : 6 channels
Channel layout : C L R Ls Rs LFE
Sampling rate : 48.0 kHz
Frame rate : 93.750 FPS (512 SPF)
Bit depth : 16 bits
Compression mode : Lossless
Stream size : 1.29 GiB (15%)
Title : DTS-HD MA 5.1
Language : English
Default : Yes
Forced : No

Text
ID : 3
Format : UTF-8
Codec ID : S_TEXT/UTF8
Codec ID/Info : UTF-8 Plain Text
Duration : 1 h 25 min
Bit rate : 66 b/s
Count of elements : 1316
Stream size : 41.3 KiB (0%)
Title : English-SRT
Language : English
Default : Yes
Forced : No

Menu
00:00:00.000 : en:Chapter 01
00:04:24.848 : en:Chapter 02
00:09:49.005 : en:Chapter 03
00:17:24.293 : en:Chapter 04
00:23:09.054 : en:Chapter 05
00:29:39.194 : en:Chapter 06
00:42:40.308 : en:Chapter 07
00:51:23.289 : en:Chapter 08
00:58:12.781 : en:Chapter 09
01:03:37.480 : en:Chapter 10
01:10:27.515 : en:Chapter 11
01:19:26.845 : en:Chapter 12





1 个附件 售价 大小 下载 时间

The.Adventure.Of.A.R.I.My.Robot.Friend.2020.1080p.BluRay.x264.DTS-HD.MA.5.1-FGT.zip 0 金币 43.11K 343 次 1月前

#1楼
发帖时间:2021-01-17 09:49:04   |   回复数:1
liyouchai
隐世仙人♂
谢谢楼主分享资源
1月前 #2楼
游客组