travismk
一代宗师

[2019] [其他] [剧情] [BD-1080P] 焦橙邪说/谎画情人 The.Burnt.Orange.Heresy.2019.1080p.BluRay.x264.DTS-FGT 8.91GB

-->

帖子完整标题:焦橙邪说/谎画情人 The.Burnt.Orange.Heresy.2019.1080p.BluRay.x264.DTS-FGT 8.91GB



◎译  名 焦橙邪说/谎画情人(台)
◎片  名 The Burnt Orange Heresy
◎年  代 2019
◎产  地 英国,意大利
◎类  别 剧情 / 动作 / 惊悚
◎语  言 英语
◎上映日期 2019-09-07(威尼斯电影节) / 2020-08-07(美国)
◎IMDb评分 6/10 from 2127 users
◎IMDb链接 https://www.imdb.com/title/tt8342680/
◎豆瓣评分 6.7/10 from 745 users
◎豆瓣链接 https://movie.douban.com/subject/3988738/
◎片  长 99分钟
◎导  演 吉塞佩·卡波通蒂 Giuseppe Capotondi
◎编  剧 斯科特·B·史密斯 Scott B. Smith / 查尔斯·威尔福特 Charles Willeford
◎主  演 伊丽莎白·德比茨基 Elizabeth Debicki
      唐纳德·萨瑟兰 Donald Sutherland
      克拉斯·邦 Claes Bang
      米克·贾格尔 Mick Jagger
      罗莎琳德·霍尔斯特德 Rosalind Halstead
      凯蒂·麦戈文 Katie McGovern
      亚历克西雅·默里 Alexia Murray

◎标  签 犯罪 | 悬疑 | 英国 | 剧情 | 意大利 | 惊悚 | 2019 | 2020

◎简  介

  影片改编自查尔斯·威尔福德的同名小说。故事讲述1970年的意大利,一名美国艺术评论家(克拉斯饰)与一位正在游历欧洲的女性(德比茨基饰),前往意大利拜访艺术品收藏家(仍在选角中)时萌生了窃取艺术品的念头。沃肯在其中饰演一名艺术大亨Jerome Debney。

Video
ID : 1
Format : AVC
Format/Info : Advanced Video Codec
Format profile : [email protected]
Format settings : CABAC / 4 Ref Frames
Format settings, CABAC : Yes
Format settings, Reference frames : 4 frames
Codec ID : V_MPEG4/ISO/AVC
Duration : 1 h 38 min
Bit rate : 11.5 Mb/s
Width : 1 920 pixels
Height : 804 pixels
Display aspect ratio : 2.40:1
Frame rate mode : Constant
Frame rate : 23.976 (24000/1001/189150) FPS
Color space : YUV
Chroma subsampling : 4:2:0
Bit depth : 8 bits
Scan type : Progressive
Bits/(Pixel*Frame) : 0.311
Stream size : 7.87 GiB (88%)
Writing library : x264 core 148 r2748 97eaef2
Encoding settings : cabac=1 / ref=4 / deblock=1:-2:-2 / analyse=0x3:0x113 / me=umh / subme=9 / psy=1 / psy_rd=1.00:0.15 / mixed_ref=1 / me_range=16 / chroma_me=1 / trellis=2 / 8x8dct=1 / cqm=0 / deadzone=21,11 / fast_pskip=1 / chroma_qp_offset=-3 / threads=72 / lookahead_threads=3 / sliced_threads=0 / nr=0 / decimate=1 / interlaced=0 / bluray_compat=0 / constrained_intra=0 / bframes=3 / b_pyramid=2 / b_adapt=1 / b_bias=0 / direct=3 / weightb=1 / open_gop=0 / weightp=2 / keyint=250 / keyint_min=25 / scenecut=40 / intra_refresh=0 / rc_lookahead=50 / rc=2pass / mbtree=1 / bitrate=11500 / ratetol=1.0 / qcomp=0.60 / qpmin=0 / qpmax=69 / qpstep=4 / cplxblur=20.0 / qblur=0.5 / vbv_maxrate=31250 / vbv_bufsize=31250 / nal_hrd=none / filler=0 / ip_ratio=1.40 / aq=1:1.00
Language : English
Default : Yes
Forced : No

Audio
ID : 2
Format : DTS
Format/Info : Digital Theater Systems
Codec ID : A_DTS
Duration : 1 h 38 min
Bit rate mode : Constant
Bit rate : 1 509 kb/s
Channel(s) : 6 channels
Channel layout : C L R Ls Rs LFE
Sampling rate : 48.0 kHz
Frame rate : 93.750 FPS (512 SPF)
Bit depth : 24 bits
Compression mode : Lossy
Stream size : 1.03 GiB (12%)
Title : DTS 5.1
Language : English
Default : Yes
Forced : No

Text
ID : 3
Format : UTF-8
Codec ID : S_TEXT/UTF8
Codec ID/Info : UTF-8 Plain Text
Duration : 1 h 30 min
Bit rate : 55 b/s
Count of elements : 1052
Stream size : 36.8 KiB (0%)
Title : English-SRT
Language : English
Default : Yes
Forced : No

Menu
00:00:00.000 : en:Chapter 01
00:08:25.046 : en:Chapter 02
00:15:05.362 : en:Chapter 03
00:23:05.050 : en:Chapter 04
00:28:31.876 : en:Chapter 05
00:33:26.504 : en:Chapter 06
00:40:48.904 : en:Chapter 07
00:49:02.272 : en:Chapter 08
00:52:44.953 : en:Chapter 09
00:59:31.526 : en:Chapter 10
01:04:52.179 : en:Chapter 11
01:08:55.923 : en:Chapter 12
01:13:17.976 : en:Chapter 13
01:16:30.460 : en:Chapter 14
01:22:12.052 : en:Chapter 15
01:26:55.960 : en:Chapter 16
01:33:04.453 : en:Chapter 17
01:38:01.166 : en:Chapter 18





1 个附件 售价 大小 下载 时间

The.Burnt.Orange.Heresy.2019.1080p.BluRay.x264.DTS-FGT.zip 0 金币 45.21K 518 次 1月前

#1楼
发帖时间:2021-01-17 09:44:53   |   回复数:0
游客组