travismk
一代宗师

[更 早] [其他] [剧情] [BD-1080P] 杜丝 Douce.1943.1080p.BluRay.x264-BiPOLAR 11.09GB

-->

帖子完整标题:杜丝 Douce.1943.1080p.BluRay.x264-BiPOLAR 11.09GB



◎译  名 杜丝/Love Story/爱情故事
◎片  名 Douce
◎年  代 1943
◎产  地 法国
◎类  别 剧情
◎语  言 法语
◎上映日期 1943-11-10
◎IMDb评分 7.2/10 from 279 users
◎IMDb链接 https://www.imdb.com/title/tt0035823/
◎豆瓣评分 /10 from 0 users
◎豆瓣链接 https://movie.douban.com/subject/1924478/
◎片  长 104 分钟
◎导  演 克洛德·奥当-拉哈 Claude Autant-Lara
◎编  剧 让·奥朗什 Jean Aurenche / 皮埃尔·博斯特 Pierre Bost
◎主  演 奥黛特·茹瓦耶 Odette Joyeux
      玛德琳尼·罗宾森 Madeleine Robinson
      玛格丽特·莫雷诺 Marguerite Moreno
      阿尔贝·雷米 Albert Rémy
      夏尔·维西埃 Charles Vissière
      Julienne Paroli
      Paul Oettly
      罗歇·皮戈 Roger Pigaut
      Marie-José
      Cécyl Marcyl
      阿伯特·米歇尔 Albert Michel
      Palmyre Levasseur
      加布丽埃勒·丰坦 Gabrielle Fontan
      罗热·布兰 Roger Blin
      Georges Bever
      莱昂斯·科尔内 Léonce Corne
      路易·弗洛朗西 Louis Florencie
      里夏尔·弗朗克尔 Richard Francoeur
      让·德比古 Jean Debucourt
      Lycette Darsonval

◎标  签 法国 | 法国电影 | CC | 云选百部外语佳片 | Claude·Autant-Lara | 经典 | 的 | 白云典藏

◎简  介

  暂无相关剧情介绍

Video
ID : 1
Format : AVC
Format/Info : Advanced Video Codec
Format profile : [email protected]
Format settings : CABAC / 5 Ref Frames
Format settings, CABAC : Yes
Format settings, Reference frames : 5 frames
Codec ID : V_MPEG4/ISO/AVC
Duration : 1 h 49 min
Bit rate : 14.3 Mb/s
Width : 1 480 pixels
Height : 1 080 pixels
Display aspect ratio : 1.370
Frame rate mode : Constant
Frame rate : 24.000 FPS
Color space : YUV
Chroma subsampling : 4:2:0
Bit depth : 8 bits
Scan type : Progressive
Bits/(Pixel*Frame) : 0.372
Stream size : 10.9 GiB (98%)
Writing library : x264 core 161 r3027 4121277
Encoding settings : cabac=1 / ref=5 / deblock=1:-3:-3 / analyse=0x3:0x133 / me=umh / subme=10 / psy=1 / psy_rd=1.00:0.15 / mixed_ref=1 / me_range=24 / chroma_me=1 / trellis=2 / 8x8dct=1 / cqm=0 / deadzone=21,11 / fast_pskip=1 / chroma_qp_offset=-3 / threads=18 / lookahead_threads=3 / sliced_threads=0 / nr=0 / decimate=1 / interlaced=0 / bluray_compat=0 / constrained_intra=0 / bframes=8 / b_pyramid=2 / b_adapt=2 / b_bias=0 / direct=3 / weightb=1 / open_gop=0 / weightp=2 / keyint=250 / keyint_min=24 / scenecut=40 / intra_refresh=0 / rc_lookahead=60 / rc=crf / mbtree=1 / crf=17.0 / qcomp=0.60 / qpmin=0 / qpmax=69 / qpstep=4 / ip_ratio=1.40 / aq=3:0.50
Language : English
Default : Yes
Forced : No

Audio
ID : 2
Format : FLAC
Format/Info : Free Lossless Audio Codec
Codec ID : A_FLAC
Duration : 1 h 49 min
Bit rate mode : Variable
Bit rate : 210 kb/s
Channel(s) : 2 channels
Channel layout : L R
Sampling rate : 48.0 kHz
Frame rate : 11.719 FPS (4096 SPF)
Bit depth : 16 bits
Compression mode : Lossless
Stream size : 165 MiB (1%)
Writing library : libFLAC 1.2.1 (UTC 2007-09-17)
Language : French
Default : Yes
Forced : No

Text #1
ID : 3
Format : UTF-8
Codec ID : S_TEXT/UTF8
Codec ID/Info : UTF-8 Plain Text
Duration : 1 h 47 min
Bit rate : 53 b/s
Count of elements : 1352
Stream size : 42.3 KiB (0%)
Title : English
Language : English
Default : Yes
Forced : Yes

Text #2
ID : 4
Format : UTF-8
Codec ID : S_TEXT/UTF8
Codec ID/Info : UTF-8 Plain Text
Duration : 1 h 49 min
Bit rate : 61 b/s
Count of elements : 1465
Stream size : 49.4 KiB (0%)
Title : French SDH
Language : French
Default : No
Forced : No

Text #3
ID : 5
Format : PGS
Muxing mode : zlib
Codec ID : S_HDMV/PGS
Codec ID/Info : Picture based subtitle format used on BDs/HD-DVDs
Duration : 1 h 49 min
Bit rate : 12.3 kb/s
Count of elements : 2930
Stream size : 9.57 MiB (0%)
Title : French SDH
Language : French
Default : No
Forced : No

Menu
00:00:00.000 : en:00:00:00.000
00:09:24.542 : en:00:09:24.542
00:19:24.333 : en:00:19:24.333
00:30:24.583 : en:00:30:24.583
00:38:50.875 : en:00:38:50.875
00:46:26.333 : en:00:46:26.333
00:52:50.417 : en:00:52:50.417
01:01:40.458 : en:01:01:40.458
01:11:02.583 : en:01:11:02.583
01:20:56.042 : en:01:20:56.042
01:29:39.000 : en:01:29:39.000
01:37:43.125 : en:01:37:43.125





1 个附件 售价 大小 下载 时间

Douce.1943.1080p.BluRay.x264-BiPOLAR.zip 0 金币 56.13K 140 次 1月前

#1楼
发帖时间:2021-01-17 09:39:51   |   回复数:0
游客组