travismk
一代宗师

[更 早] [其他] [其他] [BD-1080P] 赫尔穆特·牛顿:边缘之框 Helmut.Newton.Frames.from.the.Edge.1989.PROPER.1080p.BluRay.x264-Bi

-->

帖子完整标题:赫尔穆特·牛顿:边缘之框 Helmut.Newton.Frames.from.the.Edge.1989.PROPER.1080p.BluRay.x264-BiPOLAR 11.30GB



◎译  名 赫尔穆特·牛顿:边缘之框/Helmut Newton : Frames from the edge
◎片  名 Frames from the Edge
◎年  代 1989
◎产  地 西德
◎类  别 纪录片 / 传记
◎语  言 英语
◎上映日期 1989-06-28
◎IMDb评分 7.1/10 from 208 users
◎IMDb链接 https://www.imdb.com/title/tt0097382/
◎豆瓣评分 8.2/10 from 54 users
◎豆瓣链接 https://movie.douban.com/subject/1507279/
◎片  长 USA: 95 分钟
◎主  演 坎迪斯·伯根 Candice Bergen
      蒂娜·布朗 Tina Brown
      凯瑟琳·德纳芙 Catherine Deneuve
      费·唐纳薇 Faye Dunaway
      罗伯特·埃文斯 Robert Evans
      卡尔·拉格菲尔德 Karl Lagerfeld
      赫尔穆特·牛顿 Helmut Newton
      夏洛特·兰普林 Charlotte Rampling
      西格妮·韦弗 Sigourney Weaver

◎标  签 纪录片 | 摄影 | 德国 | 传记 | 艺术 | HelmutNewton | 1989 | Photograpghy

◎简  介

  暂无相关剧情介绍

Video
ID : 1
Format : AVC
Format/Info : Advanced Video Codec
Format profile : [email protected]
Format settings : CABAC / 5 Ref Frames
Format settings, CABAC : Yes
Format settings, Reference frames : 5 frames
Codec ID : V_MPEG4/ISO/AVC
Duration : 1 h 39 min
Bit rate : 15.8 Mb/s
Width : 1 440 pixels
Height : 1 080 pixels
Display aspect ratio : 4:3
Frame rate mode : Constant
Frame rate : 25.000 FPS
Color space : YUV
Chroma subsampling : 4:2:0
Bit depth : 8 bits
Scan type : Progressive
Bits/(Pixel*Frame) : 0.406
Stream size : 11.0 GiB (97%)
Writing library : x264 core 161 r3027 4121277
Encoding settings : cabac=1 / ref=5 / deblock=1:-3:-3 / analyse=0x3:0x133 / me=umh / subme=10 / psy=1 / psy_rd=1.00:0.15 / mixed_ref=1 / me_range=24 / chroma_me=1 / trellis=2 / 8x8dct=1 / cqm=0 / deadzone=21,11 / fast_pskip=1 / chroma_qp_offset=-3 / threads=18 / lookahead_threads=3 / sliced_threads=0 / nr=0 / decimate=1 / interlaced=0 / bluray_compat=0 / constrained_intra=0 / bframes=8 / b_pyramid=2 / b_adapt=2 / b_bias=0 / direct=3 / weightb=1 / open_gop=0 / weightp=2 / keyint=250 / keyint_min=25 / scenecut=40 / intra_refresh=0 / rc_lookahead=60 / rc=crf / mbtree=1 / crf=16.0 / qcomp=0.60 / qpmin=0 / qpmax=69 / qpstep=4 / ip_ratio=1.40 / aq=3:0.50
Language : English
Default : Yes
Forced : No
Color range : Limited
Matrix coefficients : BT.709

Audio
ID : 2
Format : AC-3
Format/Info : Audio Coding 3
Commercial name : Dolby Digital
Codec ID : A_AC3
Duration : 1 h 39 min
Bit rate mode : Constant
Bit rate : 448 kb/s
Channel(s) : 6 channels
Channel layout : L R C LFE Ls Rs
Sampling rate : 48.0 kHz
Frame rate : 31.250 FPS (1536 SPF)
Compression mode : Lossy
Stream size : 320 MiB (3%)
Language : English
Service kind : Complete Main
Default : Yes
Forced : No

Text #1
ID : 3
Format : UTF-8
Codec ID : S_TEXT/UTF8
Codec ID/Info : UTF-8 Plain Text
Duration : 1 h 37 min
Bit rate : 16 b/s
Count of elements : 283
Stream size : 12.1 KiB (0%)
Title : English forced
Language : English
Default : Yes
Forced : Yes

Text #2
ID : 4
Format : PGS
Muxing mode : zlib
Codec ID : S_HDMV/PGS
Codec ID/Info : Picture based subtitle format used on BDs/HD-DVDs
Duration : 1 h 37 min
Bit rate : 3 248 b/s
Count of elements : 566
Stream size : 2.27 MiB (0%)
Title : English forced
Language : English
Default : No
Forced : No

Menu
00:00:00.000 : en:00:00:00.000
00:11:41.801 : en:00:11:41.801
00:22:40.759 : en:00:22:40.759
00:31:01.126 : en:00:31:01.126
00:42:35.153 : en:00:42:35.153
00:50:29.894 : en:00:50:29.894
00:58:05.615 : en:00:58:05.615
01:08:22.498 : en:01:08:22.498
01:17:22.004 : en:01:17:22.004





1 个附件 售价 大小 下载 时间

Helmut.Newton.Frames.from.the.Edge.1989.PROPER.1080p.BluRay.x264-BiPOLAR.zip 0 金币 57.31K 196 次 1月前

#1楼
发帖时间:2021-01-17 09:35:57   |   回复数:0
游客组