travismk
一代宗师

[2017] [欧美] [喜剧] [BD-1080P] 血浆故事会 Herschell.Gordon.Lewis.BloodMania.2017.1080p.BluRay.x264-GETiT 6.01GB

-->

帖子完整标题:血浆故事会 Herschell.Gordon.Lewis.BloodMania.2017.1080p.BluRay.x264-GETiT 6.01GB



◎译  名 血浆故事会
◎片  名 Herschell Gordon Lewis' BloodMania
◎年  代 2017
◎产  地 美国
◎类  别 喜剧 / 恐怖
◎语  言 英语
◎上映日期 2017-07-01(美国)
◎IMDb评分 4.4/10 from 81 users
◎IMDb链接 https://www.imdb.com/title/tt3995464/
◎豆瓣评分 /10 from 0 users
◎豆瓣链接 https://movie.douban.com/subject/27072769/
◎片  长 96分钟
◎导  演 赫舍尔·戈登·刘易斯 Herschell Gordon Lewis
◎编  剧 赫舍尔·戈登·刘易斯 Herschell Gordon Lewis

◎标  签 2017

◎简  介

  暂无相关剧情介绍

Video
ID : 1
Format : AVC
Format/Info : Advanced Video Codec
Format profile : [email protected]
Format settings : CABAC / 4 Ref Frames
Format settings, CABAC : Yes
Format settings, Reference frames : 4 frames
Codec ID : V_MPEG4/ISO/AVC
Duration : 1 h 35 min
Bit rate : 8 620 kb/s
Width : 1 920 pixels
Height : 1 080 pixels
Display aspect ratio : 16:9
Frame rate mode : Constant
Frame rate : 23.976 (24000/1001/189150) FPS
Color space : YUV
Chroma subsampling : 4:2:0
Bit depth : 8 bits
Scan type : Progressive
Bits/(Pixel*Frame) : 0.173
Stream size : 5.75 GiB (96%)
Writing library : x264 core 161 r3018 db0d417
Encoding settings : cabac=1 / ref=4 / deblock=1:-3:-3 / analyse=0x3:0x133 / me=umh / subme=9 / psy=1 / psy_rd=1.00:0.00 / mixed_ref=1 / me_range=16 / chroma_me=1 / trellis=2 / 8x8dct=1 / cqm=0 / deadzone=21,11 / fast_pskip=1 / chroma_qp_offset=-2 / threads=12 / lookahead_threads=1 / sliced_threads=0 / nr=0 / decimate=1 / interlaced=0 / bluray_compat=0 / constrained_intra=0 / bframes=3 / b_pyramid=2 / b_adapt=2 / b_bias=0 / direct=3 / weightb=1 / open_gop=0 / weightp=2 / keyint=250 / keyint_min=23 / scenecut=40 / intra_refresh=0 / rc_lookahead=60 / rc=crf / mbtree=1 / crf=17.0 / qcomp=0.60 / qpmin=0 / qpmax=69 / qpstep=4 / ip_ratio=1.40 / aq=3:0.80
Language : English
Default : Yes
Forced : No
Color range : Limited
Matrix coefficients : BT.709

Audio
ID : 2
Format : AC-3
Format/Info : Audio Coding 3
Commercial name : Dolby Digital
Codec ID : A_AC3
Duration : 1 h 35 min
Bit rate mode : Constant
Bit rate : 384 kb/s
Channel(s) : 2 channels
Channel layout : L R
Sampling rate : 48.0 kHz
Frame rate : 31.250 FPS (1536 SPF)
Compression mode : Lossy
Stream size : 262 MiB (4%)
Title : ac3
Language : English
Service kind : Complete Main
Default : Yes
Forced : No

Menu
00:00:00.000 : en:00:00:00.000
00:15:09.534 : en:00:15:09.534
00:25:00.541 : en:00:25:00.541
00:35:02.601 : en:00:35:02.601
00:43:23.976 : en:00:43:23.976
00:52:43.369 : en:00:52:43.369
01:04:26.738 : en:01:04:26.738
01:16:54.151 : en:01:16:54.151





1 个附件 售价 大小 下载 时间

Herschell.Gordon.Lewis.BloodMania.2017.1080p.BluRay.x264-GETiT.zip 0 金币 30.78K 140 次 1月前

#1楼
发帖时间:2021-01-17 09:33:58   |   回复数:1
liyouchai
隐世仙人♂
谢谢楼主分享资源
1月前 #2楼
游客组