travismk
一代宗师

[更 早] [其他] [剧情] [BD-1080P] 声音与愤怒 Sound.and.Fury.1988.1080p.BluRay.x264-BiPOLAR 12.21GB

-->

帖子完整标题:声音与愤怒 Sound.and.Fury.1988.1080p.BluRay.x264-BiPOLAR 12.21GB



◎译  名 声音与愤怒/Sound and Fury
◎片  名 De bruit et de fureur
◎年  代 1988
◎产  地 法国
◎类  别 剧情
◎语  言 法语
◎上映日期 1988-06-01
◎IMDb评分 7.4/10 from 704 users
◎IMDb链接 https://www.imdb.com/title/tt0094959/
◎豆瓣评分 7.7/10 from 265 users
◎豆瓣链接 https://movie.douban.com/subject/1909689/
◎片  长 France: 95 分钟
◎导  演 让-克洛德·布里索 Jean-Claude Brisseau
◎编  剧 让-克洛德·布里索 Jean-Claude Brisseau
◎主  演 布律诺·克雷梅 Bruno Cremer
      弗朗索瓦·尼格雷特 Fran?ois Négret
      法比恩·巴布 Fabienne Babe
      Fran?oise Vatel
      费伊里娅·德利巴 Fejria Deliba
      Antoine Fontaine

◎标  签 法国 | 青春 | 法国电影 | 让-克劳德·布里索 | JeanClaudeBrisseau | 1980s | 1988 | 声音与愤怒

◎简  介

  马塞尔(布鲁诺·克雷默 Bruno Cremer 饰)成长在一个破碎的家庭之中,父亲离开了他,他和母亲过着相依为命的生活。为了养家糊口,马塞尔跟随着母亲搬到巴黎郊区的一个街区中,母亲整日忙于工作,留给马塞尔的只有无穷无尽的孤独。
  
  马塞尔和母亲所在的,并非一个太平的社区,这里处处充斥着暴力,洋溢着犯罪的气息。一次偶然中,马塞尔结识了名为让(弗朗索瓦·尼格雷特 Fran?ois Négret 饰)的男孩。让是一个终日游手好闲的小混混,在让的耳濡目染之下,马塞尔渐渐走上了歧途。刚开始孩子们只是小偷小摸,渐渐的,事态开始向不可控制的方向发展。

◎获奖情况

  第41届戛纳电影节 ?(1988)
  青年电影奖特别奖 让-克洛德·布里索

Video
ID : 1
Format : AVC
Format/Info : Advanced Video Codec
Format profile : [email protected]
Format settings : CABAC / 5 Ref Frames
Format settings, CABAC : Yes
Format settings, Reference frames : 5 frames
Codec ID : V_MPEG4/ISO/AVC
Duration : 1 h 35 min
Bit rate : 17.6 Mb/s
Width : 1 480 pixels
Height : 1 080 pixels
Display aspect ratio : 1.370
Frame rate mode : Constant
Frame rate : 23.976 (24000/1001/189150) FPS
Color space : YUV
Chroma subsampling : 4:2:0
Bit depth : 8 bits
Scan type : Progressive
Bits/(Pixel*Frame) : 0.460
Stream size : 11.8 GiB (96%)
Writing library : x264 core 161 r3027 4121277
Encoding settings : cabac=1 / ref=5 / deblock=1:-3:-3 / analyse=0x3:0x133 / me=umh / subme=10 / psy=1 / psy_rd=1.00:0.15 / mixed_ref=1 / me_range=24 / chroma_me=1 / trellis=2 / 8x8dct=1 / cqm=0 / deadzone=21,11 / fast_pskip=1 / chroma_qp_offset=-3 / threads=18 / lookahead_threads=3 / sliced_threads=0 / nr=0 / decimate=1 / interlaced=0 / bluray_compat=0 / constrained_intra=0 / bframes=8 / b_pyramid=2 / b_adapt=2 / b_bias=0 / direct=3 / weightb=1 / open_gop=0 / weightp=2 / keyint=250 / keyint_min=23 / scenecut=40 / intra_refresh=0 / rc_lookahead=60 / rc=crf / mbtree=1 / crf=18.6 / qcomp=0.60 / qpmin=0 / qpmax=69 / qpstep=4 / ip_ratio=1.40 / aq=3:0.50
Language : English
Default : Yes
Forced : No
Color range : Limited
Matrix coefficients : BT.709

Audio
ID : 2
Format : FLAC
Format/Info : Free Lossless Audio Codec
Codec ID : A_FLAC
Duration : 1 h 35 min
Bit rate mode : Variable
Bit rate : 671 kb/s
Channel(s) : 1 channel
Channel layout : C
Sampling rate : 48.0 kHz
Frame rate : 11.719 FPS (4096 SPF)
Bit depth : 24 bits
Compression mode : Lossless
Stream size : 458 MiB (4%)
Writing library : libFLAC 1.2.1 (UTC 2007-09-17)
Language : French
Default : Yes
Forced : No

Text #1
ID : 3
Format : UTF-8
Codec ID : S_TEXT/UTF8
Codec ID/Info : UTF-8 Plain Text
Duration : 1 h 32 min
Bit rate : 28 b/s
Count of elements : 707
Stream size : 19.2 KiB (0%)
Title : English
Language : English
Default : Yes
Forced : Yes

Text #2
ID : 4
Format : UTF-8
Codec ID : S_TEXT/UTF8
Codec ID/Info : UTF-8 Plain Text
Duration : 1 h 34 min
Bit rate : 37 b/s
Count of elements : 1022
Stream size : 26.0 KiB (0%)
Title : French SDH
Language : French
Default : No
Forced : No

Text #3
ID : 5
Format : PGS
Muxing mode : zlib
Codec ID : S_HDMV/PGS
Codec ID/Info : Picture based subtitle format used on BDs/HD-DVDs
Duration : 1 h 34 min
Bit rate : 8 407 b/s
Count of elements : 2043
Stream size : 5.70 MiB (0%)
Title : French SDH
Language : French
Default : No
Forced : No

Menu
00:00:00.000 : en:00:00:00.000
00:07:58.103 : en:00:07:58.103
00:13:47.910 : en:00:13:47.910
00:21:56.941 : en:00:21:56.941
00:31:33.058 : en:00:31:33.058
00:42:06.274 : en:00:42:06.274
00:52:08.751 : en:00:52:08.751
00:55:54.059 : en:00:55:54.059
01:02:59.818 : en:01:02:59.818
01:11:07.889 : en:01:11:07.889
01:18:55.064 : en:01:18:55.064
01:30:33.345 : en:01:30:33.345





1 个附件 售价 大小 下载 时间

Sound.and.Fury.1988.1080p.BluRay.x264-BiPOLAR.zip 0 金币 61.77K 224 次 1月前

#1楼
发帖时间:2021-01-17 09:31:58   |   回复数:1
liyouchai
隐世仙人♂
谢谢楼主分享资源
1月前 #2楼
游客组