travismk
一代宗师

[2020] [欧美] [其他] [BD-1080P] 比吉斯:如何修复受伤心灵 The.Bee.Gees.How.Can.You.Mend.a.Broken.Heart.2020.1080p.BluRay.x264

-->

帖子完整标题:比吉斯:如何修复受伤心灵 The.Bee.Gees.How.Can.You.Mend.a.Broken.Heart.2020.1080p.BluRay.x264.DTS-FGT 9.52GB



◎译  名 比吉斯:如何修复受伤心灵
◎片  名 The Bee Gees: How Can You Mend a Broken Heart
◎年  代 2020
◎产  地 美国
◎类  别 纪录片 / 音乐
◎语  言 英语
◎上映日期 2020-12-12(美国)
◎IMDb评分 8.2/10 from 1922 users
◎IMDb链接 https://www.imdb.com/title/tt9850386/
◎豆瓣评分 /10 from 0 users
◎豆瓣链接 https://movie.douban.com/subject/35166317/
◎导  演 弗兰克·马歇尔 Frank Marshall
◎编  剧 马克·蒙雷 Mark Monroe
◎主  演 巴里·吉布 Barry Gibb
      莫里斯·吉布 Maurice Gibb
      罗宾·吉布 Robin Gibb
      Andy Gibb
      诺尔·加拉格 Noel Gallagher
      尼克·乔纳斯 Nick Jonas
      埃里克·克莱普顿 Eric Clapton
      克里斯·马汀 Chris Martin
      马克·容森 Mark Ronson

◎标  签 纪录片 | HBO | 音乐 | 音樂紀錄片 | 美国 | Documentary | 2020 | 深度

◎简  介

  弗兰克·马歇尔(《从地球到月球》《南极大冒险》)执导,记录了巴里、罗宾、莫里斯三兄弟事业上的成功和障碍,他们迅速崛起,乘风破浪,名利双全,克服了不断变化的音乐行业中的变幻莫测,以及与家人密切合作的复杂性。
  
  该乐队1958年成立,创作了1000多首歌曲,众多作品登上排行榜榜首,获得了格莱美终身成就奖、全英音乐奖杰出贡献奖等多项大奖,并入驻美国摇滚名人堂。

Video
ID : 1
Format : AVC
Format/Info : Advanced Video Codec
Format profile : [email protected]
Format settings : CABAC / 4 Ref Frames
Format settings, CABAC : Yes
Format settings, Reference frames : 4 frames
Codec ID : V_MPEG4/ISO/AVC
Duration : 1 h 51 min
Bit rate : 11.5 Mb/s
Width : 1 920 pixels
Height : 1 080 pixels
Display aspect ratio : 16:9
Frame rate mode : Constant
Frame rate : 23.976 (24000/1001/189150) FPS
Color space : YUV
Chroma subsampling : 4:2:0
Bit depth : 8 bits
Scan type : Progressive
Bits/(Pixel*Frame) : 0.231
Stream size : 8.92 GiB (94%)
Writing library : x264 core 148 r2748 97eaef2
Encoding settings : cabac=1 / ref=4 / deblock=1:-2:-2 / analyse=0x3:0x113 / me=umh / subme=9 / psy=1 / psy_rd=1.00:0.15 / mixed_ref=1 / me_range=16 / chroma_me=1 / trellis=2 / 8x8dct=1 / cqm=0 / deadzone=21,11 / fast_pskip=1 / chroma_qp_offset=-3 / threads=72 / lookahead_threads=3 / sliced_threads=0 / nr=0 / decimate=1 / interlaced=0 / bluray_compat=0 / constrained_intra=0 / bframes=3 / b_pyramid=2 / b_adapt=1 / b_bias=0 / direct=3 / weightb=1 / open_gop=0 / weightp=2 / keyint=250 / keyint_min=25 / scenecut=40 / intra_refresh=0 / rc_lookahead=50 / rc=2pass / mbtree=1 / bitrate=11500 / ratetol=1.0 / qcomp=0.60 / qpmin=0 / qpmax=69 / qpstep=4 / cplxblur=20.0 / qblur=0.5 / vbv_maxrate=31250 / vbv_bufsize=31250 / nal_hrd=none / filler=0 / ip_ratio=1.40 / aq=1:1.00
Language : English
Default : Yes
Forced : No

Audio
ID : 2
Format : DTS
Format/Info : Digital Theater Systems
Codec ID : A_DTS
Duration : 1 h 51 min
Bit rate mode : Constant
Bit rate : 768 kb/s
Channel(s) : 6 channels
Channel layout : C L R Ls Rs LFE
Sampling rate : 48.0 kHz
Frame rate : 93.750 FPS (512 SPF)
Bit depth : 24 bits
Compression mode : Lossy
Stream size : 610 MiB (6%)
Title : DTS 5.1
Language : English
Default : Yes
Forced : No

Text
ID : 3
Format : UTF-8
Codec ID : S_TEXT/UTF8
Codec ID/Info : UTF-8 Plain Text
Duration : 1 h 50 min
Bit rate : 94 b/s
Count of elements : 1829
Stream size : 76.1 KiB (0%)
Title : English-SRT
Language : English
Default : Yes
Forced : No

Menu
00:00:00.083 : en:Chapter 01
00:10:12.028 : en:Chapter 02
00:18:05.584 : en:Chapter 03
00:25:30.737 : en:Chapter 04
00:35:12.026 : en:Chapter 05
00:46:02.259 : en:Chapter 06
00:54:12.624 : en:Chapter 07
01:00:42.096 : en:Chapter 08
01:08:54.505 : en:Chapter 09
01:17:29.102 : en:Chapter 10
01:28:12.412 : en:Chapter 11
01:38:12.303 : en:Chapter 12





1 个附件 售价 大小 下载 时间

The.Bee.Gees.How.Can.You.Mend.a.Broken.Heart.2020.1080p.BluRay.x264.DTS-FGT.zip 0 金币 48.34K 280 次 1月前

#1楼
发帖时间:2021-01-17 09:30:17   |   回复数:0
游客组