travismk
一代宗师

[2009] [欧美] [喜剧] [WEB-1080P] 无性难欢 Everybody.Is.Having.Sex.But.Ryan.2009.1080p.WEBRip.x264-RARBG 267.78MB

-->

帖子完整标题:无性难欢 Everybody.Is.Having.Sex.But.Ryan.2009.1080p.WEBRip.x264-RARBG 267.78MB



◎译  名 无性难欢
◎片  名 Everybody Is Having Sex... But Ryan
◎年  代 2009
◎产  地 美国
◎类  别 喜剧 / 爱情 / 短片
◎语  言 英语
◎上映日期 2009
◎IMDb评分 4.6/10 from 71 users
◎IMDb链接 https://www.imdb.com/title/tt1494703/
◎豆瓣评分 4.9/10 from 178 users
◎豆瓣链接 https://movie.douban.com/subject/5165081/
◎片  长 14分钟
◎主  演 杰瑞米·卢卡斯 Jeremy Lucas

◎标  签 短片 | 同性 | 美国 | 同志 | 喜剧 | GAY | 爱情 | 2009

◎简  介

  暂无相关剧情介绍

Video
ID : 1
Format : AVC
Format/Info : Advanced Video Codec
Format profile : [email protected]
Format settings : CABAC / 4 Ref Frames
Format settings, CABAC : Yes
Format settings, Reference frames : 4 frames
Codec ID : avc1
Codec ID/Info : Advanced Video Coding
Duration : 13 min 42 s
Bit rate : 2 500 kb/s
Width : 1 920 pixels
Height : 1 080 pixels
Display aspect ratio : 16:9
Frame rate mode : Constant
Frame rate : 29.970 (29970/1000/189150) FPS
Color space : YUV
Chroma subsampling : 4:2:0
Bit depth : 8 bits
Scan type : Progressive
Bits/(Pixel*Frame) : 0.040
Stream size : 245 MiB (91%)
Writing library : x264 core 152 r2851M ba24899
Encoding settings : cabac=1 / ref=4 / deblock=1:-1:-1 / analyse=0x3:0x113 / me=umh / subme=9 / psy=1 / psy_rd=1.00:0.15 / mixed_ref=1 / me_range=24 / chroma_me=1 / trellis=2 / 8x8dct=1 / cqm=0 / deadzone=21,11 / fast_pskip=1 / chroma_qp_offset=-3 / threads=16 / lookahead_threads=4 / sliced_threads=0 / nr=0 / decimate=1 / interlaced=0 / bluray_compat=0 / constrained_intra=0 / bframes=3 / b_pyramid=2 / b_adapt=2 / b_bias=0 / direct=3 / weightb=1 / open_gop=0 / weightp=2 / keyint=250 / keyint_min=25 / scenecut=40 / intra_refresh=0 / rc_lookahead=50 / rc=2pass / mbtree=1 / bitrate=2500 / ratetol=1.0 / qcomp=0.60 / qpmin=0 / qpmax=69 / qpstep=4 / cplxblur=20.0 / qblur=0.5 / vbv_maxrate=31250 / vbv_bufsize=31250 / nal_hrd=none / filler=0 / ip_ratio=1.40 / aq=3:1.00
Encoded date : UTC 2020-11-22 11:55:57
Tagged date : UTC 2020-11-22 11:55:57
Codec configuration box : avcC

Audio
ID : 2
Format : AAC LC
Format/Info : Advanced Audio Codec Low Complexity
Codec ID : mp4a-40-2
Duration : 13 min 42 s
Bit rate mode : Constant
Bit rate : 224 kb/s
Channel(s) : 2 channels
Channel layout : L R
Sampling rate : 48.0 kHz
Frame rate : 46.875 FPS (1024 SPF)
Compression mode : Lossy
Stream size : 22.0 MiB (8%)
Language : English
Default : Yes
Alternate group : 1
Encoded date : UTC 2020-11-22 11:55:57
Tagged date : UTC 2020-11-22 11:55:57





1 个附件 售价 大小 下载 时间

Everybody.Is.Having.Sex.But.Ryan.2009.1080p.WEBRip.x264-RARBG.zip 0 金币 5.96K 455 次 10天前

#1楼
发帖时间:2020-11-22 22:29:58   |   回复数:3
liyouchai
隐世仙人♂
谢谢楼主分享资源
10天前 #2楼
yangbo83222179
一代宗师

谢谢楼主分享
10天前 #3楼
kola13
武林盟主
感谢分享
10天前 #4楼
游客组