travismk
一代宗师

[更 早] [其他] [剧情] [BD-1080P] 高压电 High.Tension.2003.1080p.BluRay.x264-SADPANDA 7.94GB

-->

帖子完整标题:高压电 High.Tension.2003.1080p.BluRay.x264-SADPANDA 7.94GB



◎译  名 高压电/High Tension/Switchblade Romance/极异之情/爱定你 杀定你/血色月亮/颤栗
◎片  名 Haute tension
◎年  代 2003
◎产  地 法国
◎类  别 剧情 / 惊悚 / 恐怖
◎语  言 法语,英语,意大利语
◎上映日期 2003-06-18
◎IMDb评分 6.8/10 from 67102 users
◎IMDb链接 https://www.imdb.com/title/tt0338095/
◎豆瓣评分 6.9/10 from 9973 users
◎豆瓣链接 https://movie.douban.com/subject/1309194/
◎片  长 91分钟
◎导  演 亚历山大·阿嘉 Alexandre Aja
◎编  剧 亚历山大·阿嘉 Alexandre Aja / 格莱高利·莱瓦瑟 Grégory Levasseur
◎主  演 塞西尔·德·弗朗斯 Cécile De France
      麦温 Ma?wenn
      菲利普·纳翁 Philippe Nahon

◎标  签 惊悚 | 法国 | 恐怖 | 血腥 | 悬疑 | 暴力 | 法国电影 | 2003

◎简  介

  青春少女玛丽(Cécile De France 饰)和爱莉西娅(Ma?wenn Le Besco 饰)是同在法国巴黎一所大学就读的好朋友。某个周末,两人驱车前往爱莉西娅家位于乡下的农场度假。适值深夜,万籁俱寂,玛丽寂寞难耐正在自我宣泄之时,一个不速之客突然闯入。他残忍杀害了爱莉西娅的父母和年幼的弟弟,并将其掳去。为了营救好友,玛丽悄悄钻进凶手的卡车。途经一个加油站,她换上同样惨遭杀害的店员的车继续跟踪,却被狡猾的凶手发现行迹。一场近乎迷幻的猫鼠杀戮游戏旋即进入高潮……
  
  本片荣获2003年Sitges – Catalonian国际电影节最佳女主角(Cécile De France)、最佳导演、最佳化装和欧洲奇幻电影大奖银奖。

Video
ID : 1
Format : AVC
Format/Info : Advanced Video Codec
Format profile : [email protected]
Format settings : CABAC / 5 Ref Frames
Format settings, CABAC : Yes
Format settings, Reference frames : 5 frames
Codec ID : V_MPEG4/ISO/AVC
Duration : 1 h 30 min
Bit rate : 9 503 kb/s
Width : 1 920 pixels
Height : 824 pixels
Display aspect ratio : 2.35:1
Frame rate mode : Constant
Frame rate : 23.976 (24000/1001/189150) FPS
Color space : YUV
Chroma subsampling : 4:2:0
Bit depth : 8 bits
Scan type : Progressive
Bits/(Pixel*Frame) : 0.251
Stream size : 5.87 GiB (74%)
Writing library : x264 core 148 r2692 64f4e24
Encoding settings : cabac=1 / ref=5 / deblock=1:-3:-3 / analyse=0x3:0x113 / me=umh / subme=8 / psy=1 / psy_rd=1.00:0.25 / mixed_ref=1 / me_range=24 / chroma_me=1 / trellis=1 / 8x8dct=1 / cqm=0 / deadzone=21,11 / fast_pskip=1 / chroma_qp_offset=-4 / threads=24 / lookahead_threads=4 / sliced_threads=0 / nr=0 / decimate=1 / interlaced=0 / bluray_compat=0 / constrained_intra=0 / bframes=3 / b_pyramid=2 / b_adapt=2 / b_bias=0 / direct=3 / weightb=1 / open_gop=0 / weightp=2 / keyint=240 / keyint_min=24 / scenecut=40 / intra_refresh=0 / rc_lookahead=50 / rc=2pass / mbtree=1 / bitrate=9503 / ratetol=1.0 / qcomp=0.60 / qpmin=0 / qpmax=69 / qpstep=4 / cplxblur=20.0 / qblur=0.5 / ip_ratio=1.40 / aq=1:0.50
Default : Yes
Forced : No

Audio #1
ID : 2
Format : DTS
Format/Info : Digital Theater Systems
Codec ID : A_DTS
Duration : 1 h 30 min
Bit rate mode : Constant
Bit rate : 1 509 kb/s
Channel(s) : 6 channels
Channel layout : C L R Ls Rs LFE
Sampling rate : 48.0 kHz
Frame rate : 93.750 FPS (512 SPF)
Bit depth : 24 bits
Compression mode : Lossy
Stream size : 979 MiB (12%)
Language : English
Default : Yes
Forced : No

Audio #2
ID : 3
Format : DTS
Format/Info : Digital Theater Systems
Codec ID : A_DTS
Duration : 1 h 30 min
Bit rate mode : Constant
Bit rate : 1 509 kb/s
Channel(s) : 6 channels
Channel layout : C L R Ls Rs LFE
Sampling rate : 48.0 kHz
Frame rate : 93.750 FPS (512 SPF)
Bit depth : 24 bits
Compression mode : Lossy
Stream size : 979 MiB (12%)
Language : French
Default : No
Forced : No

Text #1
ID : 4
Format : UTF-8
Codec ID : S_TEXT/UTF8
Codec ID/Info : UTF-8 Plain Text
Language : English
Default : Yes
Forced : No

Text #2
ID : 5
Format : UTF-8
Codec ID : S_TEXT/UTF8
Codec ID/Info : UTF-8 Plain Text
Title : SDH
Language : English
Default : No
Forced : No

Menu
00:00:00.000 : en:00:00:00.000
00:03:29.501 : en:00:03:29.501
00:05:59.818 : en:00:05:59.818
00:10:31.256 : en:00:10:31.256
00:14:40.588 : en:00:14:40.588
00:23:20.983 : en:00:23:20.983
00:34:05.543 : en:00:34:05.543
00:40:17.081 : en:00:40:17.081
00:48:08.761 : en:00:48:08.761
00:53:48.267 : en:00:53:48.267
00:58:59.619 : en:00:58:59.619
01:03:29.514 : en:01:03:29.514
01:07:49.107 : en:01:07:49.107
01:12:42.984 : en:01:12:42.984
01:21:54.326 : en:01:21:54.326
01:27:10.350 : en:01:27:10.350





1 个附件 售价 大小 下载 时间

High.Tension.2003.1080p.BluRay.x264-SADPANDA.zip 0 金币 80.02K 399 次 2天前

#1楼
发帖时间:2020-11-22 21:59:29   |   回复数:1
liyouchai
隐世仙人♂
谢谢楼主分享资源
2天前 #2楼
游客组