travismk
一代宗师

[更 早] [其他] [剧情] [BD-1080P] 彩虹 The.Rainbow.1989.1080p.BluRay.x264-HANDJOB 8.20GB

-->

帖子完整标题:彩虹 The.Rainbow.1989.1080p.BluRay.x264-HANDJOB 8.20GB



◎译  名 彩虹
◎片  名 The Rainbow
◎年  代 1989
◎产  地 英国,美国
◎类  别 剧情 / 动作 / 爱情
◎语  言 英语
◎上映日期 1989-05-26
◎IMDb评分 6.2/10 from 1271 users
◎IMDb链接 https://www.imdb.com/title/tt0098165/
◎豆瓣评分 6.5/10 from 114 users
◎豆瓣链接 https://movie.douban.com/subject/3212993/
◎片  长 113 分钟
◎导  演 肯·罗素 Ken Russell
◎编  剧 肯·罗素 Ken Russell / D·H·劳伦斯 D.H. Lawrence
◎主  演 赛米·戴维斯 Sammi Davis
      保罗·麦甘恩 Paul McGann
      阿曼达·多诺休 Amanda Donohoe
      克里斯托弗·盖布尔 Christopher Gable
      Richard Platt
      伊莫金·斯塔布斯 Imogen Stubbs
      保罗·雷诺兹 Paul Reynolds
      Rupert Russell
      妮古拉·斯蒂芬森 Nicola Stephenson
      Glenda McKay
      Bernard Latham
      约翰·塔姆斯 John Tams
      肯尼斯·考利 Kenneth Colley
      戴维·海明斯 David Hemmings
      格兰达·杰克逊 Glenda Jackson
      吉姆·卡特 Jim Carter
      杜德里·沙顿 Dudley Sutton

◎标  签 英国 | 英国电影 | 名著改编 | 爱情 | 1989 | Ken_Russell | KenRussell | 电影

◎简  介

  Defying the moral constraints of Victorian England and her parents, a young woman engages in unbridled promiscuity with two partners before setting out to capture the fuller sensuality of life itself. Based on the 1915 novel by D.H. Lawrence.

Video
ID : 1
Format : AVC
Format/Info : Advanced Video Codec
Format profile : [email protected]
Format settings : CABAC / 4 Ref Frames
Format settings, CABAC : Yes
Format settings, Reference frames : 4 frames
Codec ID : V_MPEG4/ISO/AVC
Duration : 1 h 50 min
Bit rate : 10.4 Mb/s
Width : 1 916 pixels
Height : 1 078 pixels
Display aspect ratio : 16:9
Original display aspect ratio : 16:9
Frame rate mode : Constant
Frame rate : 23.976 (24000/1001/189150) FPS
Color space : YUV
Chroma subsampling : 4:2:0
Bit depth : 8 bits
Scan type : Progressive
Bits/(Pixel*Frame) : 0.210
Stream size : 8.05 GiB (98%)
Writing library : x264 core 157 r2935 545de2f
Encoding settings : cabac=1 / ref=4 / deblock=1:-3:-3 / analyse=0x3:0x133 / me=umh / subme=10 / psy=1 / psy_rd=1.00:0.00 / mixed_ref=1 / me_range=32 / chroma_me=1 / trellis=2 / 8x8dct=1 / cqm=0 / deadzone=21,11 / fast_pskip=0 / chroma_qp_offset=-2 / threads=34 / lookahead_threads=8 / sliced_threads=0 / nr=0 / decimate=0 / interlaced=0 / bluray_compat=0 / constrained_intra=0 / bframes=16 / b_pyramid=2 / b_adapt=2 / b_bias=0 / direct=3 / weightb=1 / open_gop=0 / weightp=2 / keyint=240 / keyint_min=24 / scenecut=40 / intra_refresh=0 / rc_lookahead=60 / rc=crf / mbtree=0 / crf=19.8 / qcomp=0.65 / qpmin=0 / qpmax=69 / qpstep=4 / vbv_maxrate=62500 / vbv_bufsize=78125 / crf_max=0.0 / nal_hrd=none / filler=0 / ip_ratio=1.40 / pb_ratio=1.30 / aq=2:0.80
Default : Yes
Forced : No
Color range : Limited
Color primaries : BT.709
Transfer characteristics : BT.709
Matrix coefficients : BT.709

Audio
ID : 2
Format : AC-3
Format/Info : Audio Coding 3
Commercial name : Dolby Digital
Codec ID : A_AC3
Duration : 1 h 50 min
Bit rate mode : Constant
Bit rate : 192 kb/s
Channel(s) : 2 channels
Channel layout : L R
Sampling rate : 48.0 kHz
Frame rate : 31.250 FPS (1536 SPF)
Compression mode : Lossy
Stream size : 152 MiB (2%)
Language : English
Service kind : Complete Main
Default : Yes
Forced : No

Text #1
ID : 3
Format : UTF-8
Codec ID : S_TEXT/UTF8
Codec ID/Info : UTF-8 Plain Text
Duration : 1 h 48 min
Bit rate : 66 b/s
Count of elements : 1615
Stream size : 53.2 KiB (0%)
Language : English
Default : Yes
Forced : No

Text #2
ID : 4
Format : PGS
Muxing mode : zlib
Codec ID : S_HDMV/PGS
Codec ID/Info : Picture based subtitle format used on BDs/HD-DVDs
Duration : 1 h 50 min
Bit rate : 22.9 kb/s
Count of elements : 1583
Stream size : 18.2 MiB (0%)
Language : Italian
Default : No
Forced : No

Menu
00:00:00.000 : :Chapter 2
00:17:58.661 : :Chapter 3
00:40:13.077 : :Chapter 4
01:02:48.765 : :Chapter 5
01:25:46.350 : :Chapter 6
01:42:40.363 : :Chapter 7





1 个附件 售价 大小 下载 时间

The.Rainbow.1989.1080p.BluRay.x264-HANDJOB.zip 0 金币 41.64K 224 次 11天前

#1楼
发帖时间:2020-11-22 21:47:00   |   回复数:0
游客组