travismk
一代宗师

[2020] [其他] [爱情] [BD-1080P] 伤心画廊 The.Broken.Hearts.Gallery.2020.1080p.BluRay.x264.DDP5.1-iFT 11.81GB

-->

帖子完整标题:伤心画廊 The.Broken.Hearts.Gallery.2020.1080p.BluRay.x264.DDP5.1-iFT 11.81GB



◎译  名 伤心画廊
◎片  名 The Broken Heart Gallery
◎年  代 2020
◎产  地 美国,加拿大
◎类  别 爱情
◎语  言 英语
◎上映日期 2020-09-11(美国)
◎IMDb评分 6.1/10 from 2251 users
◎IMDb链接 https://www.imdb.com/title/tt2140571/
◎豆瓣评分 5.7/10 from 189 users
◎豆瓣链接 https://movie.douban.com/subject/24325859/
◎片  长 108分钟
◎导  演 纳塔利·克林斯基 Natalie Krinsky
◎编  剧 纳塔利·克林斯基 Natalie Krinsky
◎主  演 莫莉·戈登 Molly Gordon
      戴克·蒙哥马利 Dacre Montgomery
      菲莉帕·苏 Phillipa Soo
      苏琪·沃特豪斯 Suki Waterhouse
      伯纳黛特·彼得斯 Bernadette Peters
      杰拉尔丁·维斯瓦纳坦 Geraldine Viswanathan
      乌特卡什·安邦德卡尔 Utkarsh Ambudkar
      梅根·弗格森 Megan Ferguson
      阿图罗·卡斯特罗 Arturo Castro
      泰勒·希尔 Taylor Hill
      尼古拉斯·卡雷拉 Nicholas Carella
      斯蒂芬妮·吴 Stephanie Ng Wan
      Chris Sandiford

◎标  签 美国 | 爱情 | 喜剧 | 2020 | 加拿大 | 2020s | 莫莉·戈登 | 电影

◎简  介

  故事讲述露西天生就是一名收藏家,她与男友分手,而男友是惠特尼博物馆的老板。露西不知道该把恋爱时的物品放在哪里,于是她在一家陌生酒店的大厅中策划了心碎画廊,在那里她找到了自己的声音,并学会了放手去爱。

Video
ID : 1
Format : AVC
Format/Info : Advanced Video Codec
Format profile : [email protected]
Format settings : CABAC / 4 Ref Frames
Format settings, CABAC : Yes
Format settings, Reference frames : 4 frames
Codec ID : V_MPEG4/ISO/AVC
Duration : 1 h 48 min
Bit rate : 14.5 Mb/s
Width : 1 920 pixels
Height : 960 pixels
Display aspect ratio : 2.000
Frame rate mode : Constant
Frame rate : 23.976 (24000/1001/189150) FPS
Color space : YUV
Chroma subsampling : 4:2:0
Bit depth : 8 bits
Scan type : Progressive
Bits/(Pixel*Frame) : 0.328
Stream size : 11.0 GiB (93%)
Writing library : x264 core 161 r3018+53 ~ Encoded by Mocunaman in Portugal
Encoding settings : cabac=1 / ref=4 / deblock=1:-3:-3 / analyse=0x3:0x133 / me=umh / subme=11 / psy=1 / fade_compensate=0.00 / psy_rd=1.00:0.00 / mixed_ref=1 / me_range=32 / chroma_me=1 / trellis=2 / 8x8dct=1 / cqm=0 / deadzone=21,11 / fast_pskip=0 / chroma_qp_offset=-2 / threads=30 / lookahead_threads=5 / sliced_threads=0 / nr=0 / decimate=0 / interlaced=0 / bluray_compat=0 / constrained_intra=0 / fgo=0 / bframes=8 / b_pyramid=2 / b_adapt=2 / b_bias=0 / direct=3 / weightb=1 / open_gop=0 / weightp=2 / keyint=250 / keyint_min=23 / scenecut=40 / intra_refresh=0 / rc=2pass / mbtree=0 / bitrate=14500 / ratetol=1.0 / qcomp=0.60 / qpmin=0:0:0 / qpmax=69:69:69 / qpstep=4 / cplxblur=20.0 / qblur=0.5 / ip_ratio=1.30 / pb_ratio=1.20 / aq=3:0.85 / aq-sensitivity=10.00 / aq-factor=1.00:1.00:1.00 / aq2=0 / aq3=0 / zones=9600,11553,b=1.3/13062,23166,b=1.3/32310,40758,b=1.3/68046,70129,b=1.3/70849,92593,b=1.3/95713,96145,b=1.3/114625,119809,b=1.3/139033,150865,b=1.3
Language : English
Default : Yes
Forced : No

Audio
ID : 2
Format : E-AC-3
Format/Info : Enhanced AC-3
Commercial name : Dolby Digital Plus
Codec ID : A_EAC3
Duration : 1 h 48 min
Bit rate mode : Constant
Bit rate : 1 024 kb/s
Channel(s) : 6 channels
Channel layout : L R C LFE Ls Rs
Sampling rate : 48.0 kHz
Frame rate : 31.250 FPS (1536 SPF)
Compression mode : Lossy
Stream size : 797 MiB (7%)
Title : E-AC3 DD+5.1 1024kbs
Language : English
Service kind : Complete Main
Default : Yes
Forced : No

Text #1
ID : 3
Format : UTF-8
Codec ID : S_TEXT/UTF8
Codec ID/Info : UTF-8 Plain Text
Duration : 1 h 44 min
Bit rate : 83 b/s
Count of elements : 1641
Stream size : 63.9 KiB (0%)
Title : Full .srt
Language : English
Default : No
Forced : No

Text #2
ID : 4
Format : UTF-8
Codec ID : S_TEXT/UTF8
Codec ID/Info : UTF-8 Plain Text
Duration : 1 h 47 min
Bit rate : 99 b/s
Count of elements : 2039
Stream size : 78.6 KiB (0%)
Title : SDH
Language : English
Default : No
Forced : No

Menu
00:00:00.000 : :Chapter 01
00:06:39.816 : :Chapter 02
00:12:41.552 : :Chapter 03
00:19:11.525 : :Chapter 04
00:28:20.699 : :Chapter 05
00:39:55.852 : :Chapter 06
00:46:55.688 : :Chapter 07
00:52:40.991 : :Chapter 08
01:04:15.268 : :Chapter 09
01:09:45.765 : :Chapter 10
01:15:21.934 : :Chapter 11
01:19:40.234 : :Chapter 12
01:25:23.535 : :Chapter 13
01:30:33.428 : :Chapter 14
01:34:59.986 : :Chapter 15
01:37:15.830 : :Chapter 16
01:44:51.160 : :Chapter 17





1 个附件 售价 大小 下载 时间

The.Broken.Hearts.Gallery.2020.1080p.BluRay.x264.DDP5.1-iFT.zip 0 金币 59.73K 161 次 2天前

#1楼
发帖时间:2020-11-22 18:57:10   |   回复数:0
游客组