q3r3
武林盟主

[2012] [欧美] [惊悚] [BD-1080P] 险恶/凶兆 Sinister.2012.1080p.BluRay.X264-AMIABLE 7.65GB

-->

帖子完整标题:险恶/凶兆 Sinister.2012.1080p.BluRay.X264-AMIABLE 7.65GB



◎译  名 险恶/凶兆(台)/邪灵(港)
◎片  名 Sinister
◎年  代 2012
◎产  地 美国
◎类  别 惊悚 / 恐怖
◎语  言 英语
◎上映日期 2012-10-12(美国)
◎IMDb评分 6.8/10 from 214183 users
◎IMDb链接 https://www.imdb.com/title/tt1922777/
◎豆瓣评分 6.7/10 from 18469 users
◎豆瓣链接 https://movie.douban.com/subject/6875615/
◎片  长 110分钟
◎导  演 斯科特·德瑞克森 Scott Derrickson
◎编  剧 斯科特·德瑞克森 Scott Derrickson / C·罗伯特·嘉吉 C. Robert Cargill
◎主  演 伊桑·霍克 Ethan Hawke
      文森特·多诺费奥 Vincent D'Onofrio
      詹姆斯·兰索恩 James Ransone
      弗雷德·多尔顿·汤普森 Fred Dalton Thompson
      克莱尔·弗利 Clare Foley
      朱丽叶·赖伦斯 Juliet Rylance
      麦克·霍·迪阿达李奥 Michael Hall D'Addario

◎标  签 恐怖 | 惊悚 | 美国 | 悬疑 | 2012 | 血腥 | 犯罪 | 险恶

◎简  介

  埃里森·奥斯沃特(伊桑·霍克 Ethan Hawke 饰)是一个十几年前小有名气的犯罪小说作家,为了寻找创作灵感,他不惜一次次搬入曾经发生过命案的凶宅。时至今日,为了重现往昔的辉煌,他再次带着妻子崔茜(Juliet Rylance 饰)以及一双儿女特里夫(Michael Hall D'Addario 饰)和艾丝莉(Clare Foley 饰)搬入一栋凶宅。在收拾阁楼时,他偶然发现一卷家庭录影带,里面记录着房子前主人一家快乐幸福的生活瞬间以及他们被吊死在树上的惨烈画面。此后的日子里,他一遍遍观看录影带,从中寻找罪犯的蛛丝马迹,并且在房屋内的每个角落追查线索。
  
  在这一过程中,各种诡异事件相继在家人身上发生。埃里森此时已难以抽身……

Video
ID : 1
Format : AVC
Format/Info : Advanced Video Codec
Format profile : [email protected]
Format settings : CABAC / 5 Ref Frames
Format settings, CABAC : Yes
Format settings, Reference frames : 5 frames
Codec ID : V_MPEG4/ISO/AVC
Duration : 1 h 49 min
Bit rate : 9 211 kb/s
Width : 1 920 pixels
Height : 800 pixels
Display aspect ratio : 2.40:1
Frame rate mode : Constant
Frame rate : 23.976 (24000/1001/189150) FPS
Color space : YUV
Chroma subsampling : 4:2:0
Bit depth : 8 bits
Scan type : Progressive
Bits/(Pixel*Frame) : 0.250
Stream size : 6.91 GiB (90%)
Writing library : x264 core 129 r2245 bc13772
Encoding settings : cabac=1 / ref=5 / deblock=1:0:0 / analyse=0x3:0x113 / me=umh / subme=8 / psy=1 / psy_rd=1.00:0.00 / mixed_ref=1 / me_range=16 / chroma_me=1 / trellis=1 / 8x8dct=1 / cqm=0 / deadzone=21,11 / fast_pskip=1 / chroma_qp_offset=-2 / threads=12 / lookahead_threads=2 / sliced_threads=0 / nr=0 / decimate=1 / interlaced=0 / bluray_compat=0 / constrained_intra=0 / bframes=3 / b_pyramid=2 / b_adapt=2 / b_bias=0 / direct=3 / weightb=1 / open_gop=0 / weightp=2 / keyint=240 / keyint_min=24 / scenecut=40 / intra_refresh=0 / rc_lookahead=50 / rc=2pass / mbtree=1 / bitrate=9211 / ratetol=1.0 / qcomp=0.60 / qpmin=0 / qpmax=69 / qpstep=4 / cplxblur=20.0 / qblur=0.5 / ip_ratio=1.40 / aq=1:1.00
Language : English
Default : Yes
Forced : No

Audio
ID : 2
Format : DTS
Format/Info : Digital Theater Systems
Codec ID : A_DTS
Duration : 1 h 49 min
Bit rate mode : Constant
Bit rate : 768 kb/s
Channel(s) : 6 channels
Channel layout : C L R Ls Rs LFE
Sampling rate : 48.0 kHz
Frame rate : 93.750 FPS (512 SPF)
Bit depth : 24 bits
Compression mode : Lossy
Stream size : 603 MiB (8%)
Language : English
Default : Yes
Forced : No

Text
ID : 3
Format : UTF-8
Codec ID : S_TEXT/UTF8
Codec ID/Info : UTF-8 Plain Text
Language : English
Default : No
Forced : No

Menu
00:00:00.000 : en:00:00:00.000
00:10:47.605 : en:00:10:47.605
00:19:12.360 : en:00:19:12.360
00:27:15.217 : en:00:27:15.217
00:37:05.557 : en:00:37:05.557
00:46:42.383 : en:00:46:42.383
00:56:37.144 : en:00:56:37.144
01:07:20.411 : en:01:07:20.411
01:17:10.751 : en:01:17:10.751
01:26:22.803 : en:01:26:22.803
01:33:41.616 : en:01:33:41.616
01:43:15.147 : en:01:43:15.147





1 个附件 售价 大小 下载 时间

Sinister.2012.1080p.BluRay.X264-AMIABLE.zip 0 金币 77.92K 245 次 11天前

#1楼
发帖时间:2020-09-16 22:43:51   |   回复数:0
游客组