fg603603
武林盟主

[更 早] [欧美] [剧情] [BD-1080P] 极度狂热/爱情全垒打 Fever.Pitch.2005.1080p.BluRay.x264-PSYCHD 7.65GB

-->

帖子完整标题:极度狂热/爱情全垒打 Fever.Pitch.2005.1080p.BluRay.x264-PSYCHD 7.65GB



◎译  名 极度狂热/爱情全垒打(台)/爱球如命
◎片  名 Fever Pitch
◎年  代 2005
◎产  地 美国
◎类  别 剧情 / 喜剧 / 爱情 / 运动
◎语  言 英语
◎上映日期 2005-03-13
◎IMDb评分 6.2/10 from 41872 users
◎IMDb链接 https://www.imdb.com/title/tt0332047/
◎豆瓣评分 7.0/10 from 1182 users
◎豆瓣链接 https://movie.douban.com/subject/1309040/
◎片  长 103 分钟
◎导  演 博比·法雷里 Bobby Farrelly / 彼得·法雷里 Peter Farrelly
◎编  剧 洛维尔·冈茨 Lowell Ganz / 巴巴卢·曼德尔 Babaloo Mandel / 尼克·霍恩比 Nick Hornby
◎主  演 德鲁·巴里摩尔 Drew Barrymore
      吉米·法伦 Jimmy Fallon
      Alexandra McDougall
      埃里克·布鲁诺·伯格曼 Eric Bruno Borgman
      Steve Scarfo
      Grady Justice
      阿曼德·里斯科 Armando Riesco
      Matthew Nagle
      Greta Onieogou
      Adam Bagni
      杰克·科勒尔 Jack Kehler
      Jim Rice
      Peter Gammons
      Jason Varitek
      Trot Nixon
      Harold Reynolds
      Dennis Eckersley
      斯蒂芬·金 Stephen King
      Tim McCarver
      John Olerud
      Johnny Damon
      杰森·斯佩瓦克 Jason Spevack
      Jeanne Zelasko
      布莱恩·库瑞 Brian Hayes Currie
      Matt Watts
      杰姬·布罗斯 Jackie Burroughs
      约翰尼·希科 Johnny Cicco
      莱尼·克拉克 Lenny Clarke
      乔·巴克 Joe Buck
      艾农·斯凯 Ione Skye
      斯科特·罗森伯格 Scott Rosenberg
      乔贝兹·威廉姆斯 JoBeth Williams
      卡迪·斯特瑞兰德 KaDee Strickland
      威利·加森 Willie Garson
      安德鲁·威尔逊 Andrew Wilson
      泽恩·格斯纳 Zen Gesner
      希芳·法隆 Siobhan Fallon
      Darren Frost
      Lorre Fritchy
      Brandon Craggs
      Joe Castiglione
      尼古拉斯·珀塞尔 Nicholas Purcell
      Erin Nanstad
      Jessamy Finet
      Paul Palandjian
      Laurel Astri
      Anthony M. Pizzuto
      Paul McGuire
      夏洛蒂·苏利文 Charlotte Sullivan
      詹姆斯·希金 James Sikking
      Brett Murphy
      Steve Levy
      玛丽莎·贾里特·威诺克 Marissa Jaret Winokur

◎标  签 爱情 | 美国 | 喜剧 | DrewBarrymore | 体育 | 美国电影 | 2005 | 德鲁·巴里摩尔

◎简  介

  这是一个关于高中老师与成功职业女性的罗曼恋爱史。
  
  他们一见钟情,沉溺其中。Lindsey(Drew Barrymore饰)对Ben(Jimmy Fallon饰)的唯一疑惑是,这么优秀的男人,怎么会从来没有恋爱?随着棒球赛季的到来,谜底揭晓了。Ben继承了舅舅每个赛季的棒球票,从7岁开始他每年夏天都与波士顿红袜队度过,在赛场的观众席上,他有一大群志同道合的朋友。Lindsey开始为了Ben迁就生活脚步,直到她意外怀孕,她认真考虑这个男人是否是婚嫁的好对象;而Ben,为了球赛忽略了Lindsey导致二人暂时分开的局面也令他重新衡量女友的重要性。
  
  你会选择球赛还是女友?但是真正爱你的人是不会让你二选一的。

Video
ID : 1
Format : AVC
Format/Info : Advanced Video Codec
Format profile : [email protected]
Format settings : CABAC / 5 Ref Frames
Format settings, CABAC : Yes
Format settings, Reference frames : 5 frames
Codec ID : V_MPEG4/ISO/AVC
Duration : 1 h 44 min
Bit rate : 9 000 kb/s
Width : 1 920 pixels
Height : 824 pixels
Display aspect ratio : 2.35:1
Frame rate mode : Constant
Frame rate : 23.976 (24000/1001/189150) FPS
Color space : YUV
Chroma subsampling : 4:2:0
Bit depth : 8 bits
Scan type : Progressive
Bits/(Pixel*Frame) : 0.237
Stream size : 6.40 GiB (84%)
Writing library : x264 core 120 r2120 0c7dab9
Encoding settings : cabac=1 / ref=5 / deblock=1:0:0 / analyse=0x3:0x113 / me=umh / subme=8 / psy=1 / psy_rd=1.00:0.00 / mixed_ref=1 / me_range=16 / chroma_me=1 / trellis=1 / 8x8dct=1 / cqm=0 / deadzone=21,11 / fast_pskip=1 / chroma_qp_offset=-2 / threads=12 / sliced_threads=0 / nr=0 / decimate=1 / interlaced=0 / bluray_compat=0 / constrained_intra=0 / bframes=3 / b_pyramid=2 / b_adapt=2 / b_bias=0 / direct=3 / weightb=1 / open_gop=0 / weightp=2 / keyint=240 / keyint_min=24 / scenecut=40 / intra_refresh=0 / rc_lookahead=50 / rc=2pass / mbtree=1 / bitrate=9000 / ratetol=1.0 / qcomp=0.60 / qpmin=0 / qpmax=69 / qpstep=4 / cplxblur=20.0 / qblur=0.5 / ip_ratio=1.40 / aq=1:1.00
Language : English
Default : Yes
Forced : No

Audio
ID : 2
Format : DTS
Format/Info : Digital Theater Systems
Codec ID : A_DTS
Duration : 1 h 44 min
Bit rate mode : Constant
Bit rate : 1 509 kb/s
Channel(s) : 6 channels
Channel layout : C L R Ls Rs LFE
Sampling rate : 48.0 kHz
Frame rate : 93.750 FPS (512 SPF)
Bit depth : 24 bits
Compression mode : Lossy
Stream size : 1.10 GiB (14%)
Language : English
Default : Yes
Forced : No

Text
ID : 3
Format : UTF-8
Codec ID : S_TEXT/UTF8
Codec ID/Info : UTF-8 Plain Text
Language : English
Default : No
Forced : No

Menu
00:00:00.000 : en:00:00:00.000
00:02:28.315 : en:00:02:28.315
00:05:49.808 : en:00:05:49.808
00:08:32.887 : en:00:08:32.887
00:11:35.320 : en:00:11:35.320
00:17:26.170 : en:00:17:26.170
00:20:02.243 : en:00:20:02.243
00:23:22.234 : en:00:23:22.234
00:26:02.394 : en:00:26:02.394
00:31:04.404 : en:00:31:04.404
00:33:49.486 : en:00:33:49.486
00:38:17.921 : en:00:38:17.921
00:44:47.184 : en:00:44:47.184
00:48:32.284 : en:00:48:32.284
00:52:08.625 : en:00:52:08.625
00:56:52.701 : en:00:56:52.701
01:04:17.520 : en:01:04:17.520
01:07:56.072 : en:01:07:56.072
01:10:47.827 : en:01:10:47.827
01:15:05.209 : en:01:15:05.209
01:18:40.049 : en:01:18:40.049
01:21:00.647 : en:01:21:00.647
01:25:09.438 : en:01:25:09.438
01:31:11.383 : en:01:31:11.383





1 个附件 售价 大小 下载 时间

Fever.Pitch.2005.1080p.BluRay.x264-PSYCHD.zip 0 金币 77.98K 105 次 11天前

#1楼
发帖时间:2020-09-16 21:47:26   |   回复数:0
游客组