squallzhao
一派掌门

[更 早] [欧美] [剧情] [BD-1080P] 拿破仑情史/黛丝蕾与拿破仑 Desiree.1954.1080p.BluRay.x264-PSYCHD 10.93GB

-->

帖子完整标题:拿破仑情史/黛丝蕾与拿破仑 Desiree.1954.1080p.BluRay.x264-PSYCHD 10.93GB



◎译  名 拿破仑情史 / 黛丝蕾与拿破仑
◎片  名 Désirée
◎年  代 1954
◎产  地 美国
◎类  别 剧情 / 爱情 / 传记 / 历史
◎语  言 英语 / 瑞典语
◎上映日期 1954-11-17(美国)
◎IMDb评分 6.4/10 from 2577 users
◎IMDb链接 https://www.imdb.com/title/tt0046903
◎豆瓣评分 7.3/10 from 746 users
◎豆瓣链接 https://movie.douban.com/subject/1303111/
◎片  长 110分钟
◎导  演 亨利·科斯特 Henry Koster
◎编  剧 Annemarie Selinko / Daniel Taradash
◎主  演 马龙·白兰度 Marlon Brando
      简·西蒙斯 Jean Simmons
      梅尔·奥勃朗 Merle Oberon
      迈克尔·伦尼 Michael Rennie
      卡梅隆·米切尔 Cameron Mitchell
      伊馥林·瓦登 Evelyn Varden
      约翰·霍伊特 John Hoyt
      阿兰·纳皮尔 Alan Napier
      Elizabeth Sellars
      Charlotte Austin
      Cathleen Nesbitt
      Isobel Elsom
      Mary Stewart


◎标  签 传记 | 马龙白兰度 | 爱情 | 拿破仑 | 历史 | 美国 | 美国电影 | MarlonBrando

◎简  介

  曾经,拿破仑(马龙·白兰度 Marlon Brando 饰)爱上了名为黛丝蕾(简·西蒙斯 Jean Simmons 饰)的美丽少女,随着时间的推移,黛丝蕾对拿破仑的爱意日益加深,甚至不惜献出大量金钱资助这个她最爱的男人。然而,拿破仑很快就发现,黛丝蕾并不能帮助自己实现自己在政治领域的野心,转而开始追求名媛约瑟芬(梅尔·奥勃朗 Merle Oberon 饰),悲愤交加的黛丝蕾怀揣着一颗破碎的心成为了伯纳达将军(迈克尔·伦尼 Michael Rennie 饰)的妻子。
  之后,拿破仑平步青云最终到达了权力的顶峰,而伯纳达将军则率军公然反对拿破仑的统治。莫斯科一役后,战败的拿破仑被流放到了荒岛之上然而野心不死,黛丝蕾出面劝说,希望曾经的爱人能够放弃战争,接受流放。

◎获奖情况

  第27届奥斯卡金像奖(1955)
  彩色片最佳艺术指导和布景(提名) 莱尔·R·惠勒 / Paul S. Fox / Leland Fuller / 沃尔特·M·斯科特
  彩色片最佳服装设计(提名) 勒内·于贝尔 / Charles Le Maire

Video
ID : 1
Format : AVC
Format/Info : Advanced Video Codec
Format profile : [email protected]
Format settings : CABAC / 5 Ref Frames
Format settings, CABAC : Yes
Format settings, Reference frames : 5 frames
Codec ID : V_MPEG4/ISO/AVC
Duration : 1 h 50 min
Bit rate : 12.7 Mb/s
Width : 1 920 pixels
Height : 752 pixels
Display aspect ratio : 2.553
Frame rate mode : Constant
Frame rate : 23.976 (24000/1001/189150) FPS
Color space : YUV
Chroma subsampling : 4:2:0
Bit depth : 8 bits
Scan type : Progressive
Bits/(Pixel*Frame) : 0.367
Stream size : 9.56 GiB (87%)
Writing library : x264 core 158 r2984 3759fcb
Encoding settings : cabac=1 / ref=5 / deblock=1:-3:-3 / analyse=0x3:0x133 / me=umh / subme=9 / psy=1 / psy_rd=1.10:0.00 / mixed_ref=1 / me_range=32 / chroma_me=1 / trellis=2 / 8x8dct=1 / cqm=0 / deadzone=21,11 / fast_pskip=0 / chroma_qp_offset=-2 / threads=23 / lookahead_threads=1 / sliced_threads=0 / nr=0 / decimate=0 / interlaced=0 / bluray_compat=0 / constrained_intra=0 / bframes=3 / b_pyramid=2 / b_adapt=2 / b_bias=0 / direct=3 / weightb=1 / open_gop=0 / weightp=2 / keyint=240 / keyint_min=24 / scenecut=40 / intra_refresh=0 / rc_lookahead=60 / rc=2pass / mbtree=1 / bitrate=12709 / ratetol=1.0 / qcomp=0.60 / qpmin=0 / qpmax=69 / qpstep=4 / cplxblur=20.0 / qblur=0.5 / ip_ratio=1.40 / aq=3:0.70
Default : Yes
Forced : No
Statistics Tags Issue : no_variable_data 1970-01-01 00:00:00 / no_variable_data 2010-02-22 21:41:29
FromStats_BitRate : 12709639
FromStats_Duration : 01:50:04.431000000
FromStats_FrameCount : 158348
FromStats_StreamSize : 10492491824

Audio
ID : 2
Format : DTS
Format/Info : Digital Theater Systems
Codec ID : A_DTS
Duration : 1 h 50 min
Bit rate mode : Constant
Bit rate : 1 509 kb/s
Channel(s) : 4 channels
Channel layout : C L R Cb
Sampling rate : 48.0 kHz
Frame rate : 93.750 FPS (512 SPF)
Bit depth : 24 bits
Compression mode : Lossy
Stream size : 1.16 GiB (11%)
Language : English
Default : Yes
Forced : No
Statistics Tags Issue : no_variable_data 1970-01-01 00:00:00 / no_variable_data 2010-02-22 21:41:29
FromStats_BitRate : 1508999
FromStats_Duration : 01:50:04.438000000
FromStats_FrameCount : 619166
FromStats_StreamSize : 1245761992

Menu
00:00:00.000 : en:Chapter 01
00:11:48.541 : en:Chapter 02
00:14:55.269 : en:Chapter 03
00:26:57.241 : en:Chapter 04
00:37:43.970 : en:Chapter 05
00:45:32.813 : en:Chapter 06
00:55:33.330 : en:Chapter 07
01:04:33.161 : en:Chapter 08
01:13:21.314 : en:Chapter 09
01:22:35.450 : en:Chapter 10
01:34:36.296 : en:Chapter 11
01:41:30.084 : en:Chapter 12





1 个附件 售价 大小 下载 时间

Desiree.1954.1080p.BluRay.x264-PSYCHD.zip 0 金币 55.37K 399 次 9天前

#1楼
发帖时间:2020-08-02 08:53:37   |   回复数:0
游客组