squallzhao
一派掌门

[更 早] [欧美] [惊悚] [BD-1080P] 讹诈/敲诈 Blackmail.1929.Silent.Cut.1080p.BluRay.x264-PSYCHD 7.94GB

-->

帖子完整标题:讹诈/敲诈 Blackmail.1929.Silent.Cut.1080p.BluRay.x264-PSYCHD 7.94GB



◎译  名 讹诈 / 敲诈
◎片  名 Blackmail
◎年  代 1929
◎产  地 英国
◎类  别 惊悚 / 犯罪
◎语  言 英语
◎上映日期 1929-06-30(英国)
◎IMDb评分 7.0/10 from 9332 users
◎IMDb链接 https://www.imdb.com/title/tt0019702
◎豆瓣评分 7.5/10 from 1175 users
◎豆瓣链接 https://movie.douban.com/subject/1296210/
◎片  长 85分钟
◎导  演 阿尔弗雷德·希区柯克 Alfred Hitchcock
◎编  剧 查尔斯·贝内特 Charles Bennett / 阿尔弗雷德·希区柯克 Alfred Hitchcock / Benn W. Levy / 迈克尔·鲍威尔 Michael Powell
◎主  演 安妮·奥德拉 Anny Ondra
      萨拉·奥尔古德 Sara Allgood
      Charles Paton
      John Longden


◎标  签 希区柯克 | 英国 | 悬疑 | AlfredHitchcock | 犯罪 | 1929 | 默片 | 1920s

◎简  介

  希区柯克又一部经典的悬疑惊悚片,讲述女主角正当防卫杀人后被人敲诈的故事,影片拍摄到后期时老板要求希区柯克把它改成有声片,希区柯克对部分场景进行了重拍加入声音,影片也因此成为英国第一部有声片,因此时大部分影院无有声设备,因此以默片和有声片双版本上映。多年来音像制品中常见的都是有声片版,而其实默片版成就更高,对于如何处理画外音上,更有独门绝技。

Video
ID : 1
Format : AVC
Format/Info : Advanced Video Codec
Format profile : [email protected]
Format settings : CABAC / 5 Ref Frames
Format settings, CABAC : Yes
Format settings, Reference frames : 5 frames
Codec ID : V_MPEG4/ISO/AVC
Duration : 1 h 15 min
Bit rate : 13.5 Mb/s
Width : 1 440 pixels
Height : 1 080 pixels
Display aspect ratio : 4:3
Frame rate mode : Constant
Frame rate : 23.976 (24000/1001/189150) FPS
Color space : YUV
Chroma subsampling : 4:2:0
Bit depth : 8 bits
Scan type : Progressive
Bits/(Pixel*Frame) : 0.362
Stream size : 6.99 GiB (88%)
Writing library : x264 core 158 r2984 3759fcb
Encoding settings : cabac=1 / ref=5 / deblock=1:-3:-3 / analyse=0x3:0x113 / me=umh / subme=8 / psy=1 / psy_rd=1.15:0.00 / mixed_ref=1 / me_range=32 / chroma_me=1 / trellis=2 / 8x8dct=1 / cqm=0 / deadzone=21,11 / fast_pskip=1 / chroma_qp_offset=-2 / threads=34 / lookahead_threads=5 / sliced_threads=0 / nr=0 / decimate=1 / interlaced=0 / bluray_compat=0 / constrained_intra=0 / bframes=3 / b_pyramid=2 / b_adapt=2 / b_bias=0 / direct=3 / weightb=1 / open_gop=0 / weightp=2 / keyint=240 / keyint_min=24 / scenecut=40 / intra_refresh=0 / rc_lookahead=50 / rc=2pass / mbtree=1 / bitrate=13506 / ratetol=1.0 / qcomp=0.60 / qpmin=0 / qpmax=69 / qpstep=4 / cplxblur=20.0 / qblur=0.5 / ip_ratio=1.40 / aq=3:0.65
Default : Yes
Forced : No
Statistics Tags Issue : no_variable_data 1970-01-01 00:00:00 / no_variable_data 2010-02-22 21:41:29
FromStats_BitRate : 13506656
FromStats_Duration : 01:15:43.748000000
FromStats_FrameCount : 108941
FromStats_StreamSize : 7671355687

Audio
ID : 2
Format : DTS
Format/Info : Digital Theater Systems
Codec ID : A_DTS
Duration : 1 h 15 min
Bit rate mode : Constant
Bit rate : 1 509 kb/s
Channel(s) : 2 channels
Channel layout : L R
Sampling rate : 48.0 kHz
Frame rate : 93.750 FPS (512 SPF)
Bit depth : 24 bits
Compression mode : Lossy
Stream size : 817 MiB (10%)
Language : English
Default : Yes
Forced : No
Statistics Tags Issue : no_variable_data 1970-01-01 00:00:00 / no_variable_data 2010-02-22 21:41:29
FromStats_BitRate : 1509000
FromStats_Duration : 01:15:43.936000000
FromStats_FrameCount : 425994
FromStats_StreamSize : 857099928

Menu
00:00:00.000 : en:Chapter 01
00:07:48.718 : en:Chapter 02
00:16:45.504 : en:Chapter 03
00:28:03.682 : en:Chapter 04
00:40:13.703 : en:Chapter 05
00:50:47.544 : en:Chapter 06
01:01:50.624 : en:Chapter 07
01:08:50.835 : en:Chapter 08





1 个附件 售价 大小 下载 时间

Blackmail.1929.Silent.Cut.1080p.BluRay.x264-PSYCHD.zip 0 金币 40.44K 259 次 9天前

#1楼
发帖时间:2020-08-02 08:50:35   |   回复数:1
xibuwangshi
小有名气
:感谢分享上古名作。
9天前 #2楼
游客组