squallzhao
一派掌门

[2018] [其他] [其他] [BD-1080P] 紅樓夢 The.Story.of.the.Stone.2018.CHINESE.1080p.BluRay.x264.DTS-CHD 9.10GB

-->

帖子完整标题:紅樓夢 The.Story.of.the.Stone.2018.CHINESE.1080p.BluRay.x264.DTS-CHD 9.10GB



◎译  名 红楼梦 / The Story of the Stone / 同志版红楼梦
◎片  名 紅樓夢
◎年  代 2018
◎产  地 中国台湾
◎类  别 情色 / 同性
◎语  言 汉语普通话
◎上映日期 2018-07-28(休士顿酷儿影展) / 2018-10-19(中国台湾)
◎IMDb评分 3.8/10 from 119 users
◎IMDb链接 https://www.imdb.com/title/tt7866702
◎豆瓣评分 4.4/10 from 3146 users
◎豆瓣链接 https://movie.douban.com/subject/26951654/
◎片  长 103分钟
◎导  演 吴星翔 Starr Wu
◎编  剧 刘枫棋 / 马逸腾 Teng Bee
◎主  演 纪言恺 J.R
      陈彦名 Aric Chen
      吕金象 Golden Elepant
      陈彦廷 Etsen Chen
      林冠宇 Kuan-yu Lin
      利晴天 Sky Li
      蔡力允 Li-Yun Tsai
      刘雨凯 Joe Liu
      荣忠豪 Stephen Rong
      唐緰
      陈信力
      谢理任
      蔡明修 Ming-shiou Tsai
      高盟杰 Meng-Chieh Kao
      陈睿纁
      柳广辉 Kuang-hui Liu
      张嘉方
      宋亚伦
      刘明动
      王岳丰
      安伟
      鲍奕安
      江盛祺


◎标  签 同性 | 台湾 | GAY | 男色 | 同志 | 同性恋 | 红楼梦 | 帅哥

◎简  介

  小林(陈彦名 饰)是一名同性恋者,和男友过着非常幸福的生活。然而,一场可怕的意外夺走了男友的生命,将小林独自一人抛入了绝望和悲痛的深渊,为了收拾心情,小林离开了家乡来到台北,希望在这里能够开启新的人生旅途。
  在台北红楼,小林结识了名为乔什(吕金象 饰)的男子,高大帅气的乔什让小林久违的体会到了心动的感觉,可就在两人关系走得越来越近时,小林才发现,自己并没有真的做好进入下一段恋情的准备。一个名叫西恩(纪言恺 饰)的男人插足了小林和乔什之间的感情,这个大家眼里的好好先生,却是小林和乔什关系里的定时炸弹。

Video
ID : 1
Format : AVC
Format/Info : Advanced Video Codec
Format profile : [email protected]
Format settings : CABAC / 4 Ref Frames
Format settings, CABAC : Yes
Format settings, Reference frames : 4 frames
Codec ID : V_MPEG4/ISO/AVC
Duration : 1 h 42 min
Bit rate : 11.3 Mb/s
Width : 1 920 pixels
Height : 1 038 pixels
Display aspect ratio : 1.85:1
Frame rate mode : Constant
Frame rate : 24.000 FPS
Color space : YUV
Chroma subsampling : 4:2:0
Bit depth : 8 bits
Scan type : Progressive
Bits/(Pixel*Frame) : 0.235
Stream size : 8.02 GiB (88%)
Title : The.Story.of.the.Stone.2018.CHINESE.1080p.BluRay.x264.DTS-CHD
Writing library : x264 core 157 r2867+150 7e91e0e t_mod_Custom_2 [[email protected] X86_64]
Encoding settings : cabac=1 / ref=4 / deblock=1:-3:-3 / analyse=0x3:0x133 / me=umh / subme=11 / psy=1 / fade_compensate=0.00 / psy_rd=0.90:0.10 / mixed_ref=1 / me_range=64 / chroma_me=1 / trellis=2 / 8x8dct=1 / cqm=0 / deadzone=21,11 / fast_pskip=0 / chroma_qp_offset=-4 / threads=32 / lookahead_threads=5 / sliced_threads=0 / nr=0 / decimate=1 / interlaced=0 / bluray_compat=0 / constrained_intra=0 / fgo=0 / bframes=8 / b_pyramid=2 / b_adapt=2 / b_bias=0 / direct=3 / weightb=1 / open_gop=0 / weightp=2 / keyint=250 / keyint_min=24 / scenecut=40 / intra_refresh=0 / rc_lookahead=60 / rc=crf / mbtree=0 / crf=18.0000 / qcomp=0.70 / qpmin=0:0:0 / qpmax=69:69:69 / qpstep=4 / vbv_maxrate=35000 / vbv_bufsize=35000 / crf_max=0.0 / nal_hrd=none / filler=0 / ip_ratio=1.40 / pb_ratio=1.30 / aq=3:1.00 / aq-sensitivity=10.00 / aq-factor=1.00:1.00:1.00 / aq2=0 / aq3=0
Language : Chinese
Default : Yes
Forced : No

Audio
ID : 2
Format : DTS
Format/Info : Digital Theater Systems
Codec ID : A_DTS
Duration : 1 h 42 min
Bit rate mode : Constant
Bit rate : 1 509 kb/s
Channel(s) : 6 channels
Channel layout : C L R Ls Rs LFE
Sampling rate : 48.0 kHz
Frame rate : 93.750 FPS (512 SPF)
Bit depth : 16 bits
Compression mode : Lossy
Stream size : 1.08 GiB (12%)
Title : The.Story.of.the.Stone.2018.CHINESE.1080p.BluRay.x264.DTS-CHD
Language : Chinese
Default : Yes
Forced : No

Text
ID : 3
Format : UTF-8
Codec ID : S_TEXT/UTF8
Codec ID/Info : UTF-8 Plain Text
Duration : 1 h 41 min
Bit rate : 50 b/s
Count of elements : 1529
Stream size : 37.4 KiB (0%)
Language : English
Default : Yes
Forced : No

Menu
00:00:00.000 : en:绗?01 绔?
00:10:56.958 : en:绗?02 绔?
00:18:46.417 : en:绗?03 绔?
00:25:13.083 : en:绗?04 绔?
00:33:04.167 : en:绗?05 绔?
00:42:59.625 : en:绗?06 绔?
00:52:32.667 : en:绗?07 绔?
01:03:25.375 : en:绗?08 绔?
01:11:44.750 : en:绗?09 绔?
01:18:45.250 : en:绗?10 绔?
01:26:51.542 : en:绗?11 绔?
01:32:17.125 : en:绗?12 绔?





1 个附件 售价 大小 下载 时间

The.Story.of.the.Stone.2018.CHINESE.1080p.BluRay.x264.DTS-CHD.zip 0 金币 46.18K 343 次 1天前

#1楼
发帖时间:2020-08-02 08:48:07   |   回复数:1
kola13
武林盟主
感谢分享
16小时前 #2楼
游客组