coor
一代宗师

[更 早] [其他] [惊悚] [BD-720P] 红圈 The.Red.Circle.1960.720p.BluRay.x264-UNVEiL 5.18GB

-->

帖子完整标题:红圈 The.Red.Circle.1960.720p.BluRay.x264-UNVEiL 5.18GB



◎译  名 红圈 / The Crimson Circle
◎片  名 Der Rote Kreis
◎年  代 1960
◎产  地 丹麦 / 西德
◎类  别 惊悚 / 犯罪
◎语  言 德语
◎上映日期 1960-03-02
◎IMDb评分 6.2/10 from 376 users
◎IMDb链接 https://www.imdb.com/title/tt0053228
◎豆瓣评分 0/10 from 0 users
◎豆瓣链接 https://movie.douban.com/subject/3250959/
◎片  长 Germany: 92 分钟
◎导  演 Jürgen Roland
◎编  剧 Edgar Wallace (novel) / Egon Eis (writer)
◎主  演 Renate Ewert
      Klausjürgen Wussow


◎标  签 悬疑 | 已下

◎简  介

  A strange, red circle appears on the neck of a man saved from the guillotine. What is its mysterious meaning? Tragically, it turns out to be something of a family curse, as each generation thereafter bears the same sign, which in turn leads to blackmail and murder.

Video
ID : 1
Format : AVC
Format/Info : Advanced Video Codec
Format profile : [email protected]
Format settings : CABAC / 8 Ref Frames
Format settings, CABAC : Yes
Format settings, Reference frames : 8 frames
Codec ID : V_MPEG4/ISO/AVC
Duration : 1 h 31 min
Bit rate : 6 776 kb/s
Width : 1 196 pixels
Height : 720 pixels
Display aspect ratio : 5:3
Frame rate mode : Constant
Frame rate : 24.000 FPS
Color space : YUV
Chroma subsampling : 4:2:0
Bit depth : 8 bits
Scan type : Progressive
Bits/(Pixel*Frame) : 0.328
Stream size : 4.34 GiB (84%)
Writing library : x264 core 161 r3018 db0d417
Encoding settings : cabac=1 / ref=8 / deblock=1:-3:-3 / analyse=0x3:0x133 / me=umh / subme=9 / psy=1 / psy_rd=1.00:0.00 / mixed_ref=1 / me_range=16 / chroma_me=1 / trellis=2 / 8x8dct=1 / cqm=0 / deadzone=21,11 / fast_pskip=0 / chroma_qp_offset=-2 / threads=22 / lookahead_threads=1 / sliced_threads=0 / nr=0 / decimate=1 / interlaced=0 / bluray_compat=0 / constrained_intra=0 / bframes=3 / b_pyramid=2 / b_adapt=2 / b_bias=0 / direct=3 / weightb=1 / open_gop=0 / weightp=2 / keyint=250 / keyint_min=24 / scenecut=40 / intra_refresh=0 / rc_lookahead=60 / rc=crf / mbtree=1 / crf=18.0 / qcomp=0.60 / qpmin=0 / qpmax=69 / qpstep=4 / ip_ratio=1.40 / aq=1:1.00
Language : English
Default : Yes
Forced : No

Audio #1
ID : 2
Format : AC-3
Format/Info : Audio Coding 3
Commercial name : Dolby Digital
Codec ID : A_AC3
Duration : 1 h 31 min
Bit rate mode : Constant
Bit rate : 640 kb/s
Channel(s) : 2 channels
Channel layout : L R
Sampling rate : 48.0 kHz
Frame rate : 31.250 FPS (1536 SPF)
Bit depth : 16 bits
Compression mode : Lossy
Stream size : 420 MiB (8%)
Language : German
Service kind : Complete Main
Default : Yes
Forced : No

Audio #2
ID : 3
Format : AC-3
Format/Info : Audio Coding 3
Commercial name : Dolby Digital
Codec ID : A_AC3
Duration : 1 h 31 min
Bit rate mode : Constant
Bit rate : 640 kb/s
Channel(s) : 2 channels
Channel layout : L R
Sampling rate : 48.0 kHz
Frame rate : 31.250 FPS (1536 SPF)
Bit depth : 16 bits
Compression mode : Lossy
Stream size : 420 MiB (8%)
Language : English
Service kind : Complete Main
Default : No
Forced : No

Text #1
ID : 4
Format : UTF-8
Codec ID : S_TEXT/UTF8
Codec ID/Info : UTF-8 Plain Text
Duration : 1 h 31 min
Bit rate : 70 b/s
Count of elements : 886
Stream size : 47.2 KiB (0%)
Language : English
Default : Yes
Forced : No

Text #2
ID : 5
Format : PGS
Muxing mode : zlib
Codec ID : S_HDMV/PGS
Codec ID/Info : Picture based subtitle format used on BDs/HD-DVDs
Duration : 1 h 31 min
Bit rate : 37.7 kb/s
Count of elements : 1772
Stream size : 24.5 MiB (0%)
Language : English
Default : No
Forced : No

Text #3
ID : 6
Format : PGS
Muxing mode : zlib
Codec ID : S_HDMV/PGS
Codec ID/Info : Picture based subtitle format used on BDs/HD-DVDs
Duration : 1 h 31 min
Bit rate : 40.3 kb/s
Count of elements : 1858
Stream size : 26.3 MiB (0%)
Language : German
Default : No
Forced : No

Menu
00:00:00.000 : :Kapitel 01
00:12:35.750 : :Kapitel 02
00:21:36.125 : :Kapitel 03
00:30:59.375 : :Kapitel 04
00:42:10.083 : :Kapitel 05
00:52:16.958 : :Kapitel 06
01:04:23.292 : :Kapitel 07
01:15:12.792 : :Kapitel 08
01:23:04.167 : :Kapitel 09





1 个附件 售价 大小 下载 时间

The.Red.Circle.1960.720p.BluRay.x264-UNVEiL.zip 0 金币 26.60K 77 次 1天前

#1楼
发帖时间:2020-08-02 08:35:41   |   回复数:0
游客组