squallzhao
一派掌门

[更 早] [欧美] [剧情] [BD-1080P] 法网终结者/流氓大状 True.Believer.1989.1080p.BluRay.x264-PSYCHD 10.94GB

-->

帖子完整标题:法网终结者/流氓大状 True.Believer.1989.1080p.BluRay.x264-PSYCHD 10.94GB



◎译  名 法网终结者 / 流氓大状
◎片  名 True Believer
◎年  代 1989
◎产  地 美国
◎类  别 剧情 / 犯罪
◎语  言 英语
◎上映日期 1989-02-17(美国)
◎IMDb评分 6.7/10 from 4295 users
◎IMDb链接 https://www.imdb.com/title/tt0098524
◎豆瓣评分 7.1/10 from 107 users
◎豆瓣链接 https://movie.douban.com/subject/1294422/
◎片  长 105 分钟
◎导  演 约瑟夫·鲁本 Joseph Ruben
◎编  剧 韦斯利·斯崔克 Wesley Strick
◎主  演 詹姆斯·伍兹 James Woods
      小罗伯特·唐尼 Robert Downey Jr.
      玛格丽特·柯林 Margaret Colin
      柯特伍德·史密斯 Kurtwood Smith
      汤姆·鲍尔 Tom Bower


◎标  签 法律 | 美国 | RobertDowneyJr. | RDJ | 犯罪 | 1989 | 剧情 | 詹姆斯·伍兹

◎简  介

  A cynical former civil liberties attorney now reduced to "specializing" in defending drug dealers becomes transformed by an eight-year-old murder case.

Video
ID : 1
Format : AVC
Format/Info : Advanced Video Codec
Format profile : [email protected]
Format settings : CABAC / 4 Ref Frames
Format settings, CABAC : Yes
Format settings, Reference frames : 4 frames
Codec ID : V_MPEG4/ISO/AVC
Duration : 1 h 48 min
Bit rate : 13.0 Mb/s
Width : 1 920 pixels
Height : 1 040 pixels
Display aspect ratio : 1.85:1
Frame rate mode : Constant
Frame rate : 23.976 (24000/1001/189150) FPS
Color space : YUV
Chroma subsampling : 4:2:0
Bit depth : 8 bits
Scan type : Progressive
Bits/(Pixel*Frame) : 0.271
Stream size : 9.57 GiB (88%)
Writing library : x264 core 158 r2984 3759fcb
Encoding settings : cabac=1 / ref=4 / deblock=1:-3:-3 / analyse=0x3:0x113 / me=umh / subme=8 / psy=1 / psy_rd=1.12:0.00 / mixed_ref=1 / me_range=32 / chroma_me=1 / trellis=2 / 8x8dct=1 / cqm=0 / deadzone=21,11 / fast_pskip=1 / chroma_qp_offset=-2 / threads=32 / lookahead_threads=5 / sliced_threads=0 / nr=0 / decimate=1 / interlaced=0 / bluray_compat=0 / constrained_intra=0 / bframes=3 / b_pyramid=2 / b_adapt=2 / b_bias=0 / direct=3 / weightb=1 / open_gop=0 / weightp=2 / keyint=240 / keyint_min=24 / scenecut=40 / intra_refresh=0 / rc_lookahead=50 / rc=2pass / mbtree=1 / bitrate=12959 / ratetol=1.0 / qcomp=0.60 / qpmin=0 / qpmax=69 / qpstep=4 / cplxblur=20.0 / qblur=0.5 / ip_ratio=1.40 / aq=3:0.70
Default : Yes
Forced : No
Statistics Tags Issue : no_variable_data 1970-01-01 00:00:00 / no_variable_data 2010-02-22 21:41:29
FromStats_BitRate : 12954976
FromStats_Duration : 01:48:09.775000000
FromStats_FrameCount : 155599
FromStats_StreamSize : 10509360732

Audio
ID : 2
Format : DTS
Format/Info : Digital Theater Systems
Codec ID : A_DTS
Duration : 1 h 48 min
Bit rate mode : Constant
Bit rate : 1 509 kb/s
Channel(s) : 2 channels
Channel layout : L R
Sampling rate : 48.0 kHz
Frame rate : 93.750 FPS (512 SPF)
Bit depth : 24 bits
Compression mode : Lossy
Stream size : 1.14 GiB (10%)
Language : English
Default : Yes
Forced : No
Statistics Tags Issue : no_variable_data 1970-01-01 00:00:00 / no_variable_data 2010-02-22 21:41:29
FromStats_BitRate : 1508999
FromStats_Duration : 01:48:09.739000000
FromStats_FrameCount : 608413
FromStats_StreamSize : 1224126956

Text
ID : 3
Format : UTF-8
Codec ID : S_TEXT/UTF8
Codec ID/Info : UTF-8 Plain Text
Language : English
Default : No
Forced : No
Statistics Tags Issue : no_variable_data 1970-01-01 00:00:00 / no_variable_data 2010-02-22 21:41:29
FromStats_BitRate : 70
FromStats_Duration : 01:42:44.075000000
FromStats_FrameCount : 1297
FromStats_StreamSize : 54137

Menu
00:00:00.000 : en:Chapter 01
00:12:07.310 : en:Chapter 02
00:20:18.092 : en:Chapter 03
00:27:25.352 : en:Chapter 04
00:38:22.050 : en:Chapter 05
00:49:23.878 : en:Chapter 06
00:59:29.316 : en:Chapter 07
01:07:46.104 : en:Chapter 08
01:17:19.385 : en:Chapter 09
01:36:00.672 : en:Chapter 10
01:44:48.157 : en:Chapter 11
01:48:09.149 : en:Chapter 12





1 个附件 售价 大小 下载 时间

True.Believer.1989.1080p.BluRay.x264-PSYCHD.zip 0 金币 56.22K 273 次 9天前

#1楼
发帖时间:2020-08-02 08:29:34   |   回复数:0
游客组