squallzhao
一派掌门

[2010] [欧美] [其他] [BD-1080P] 重拳 The.Hammer.2010.1080p.BluRay.x264-PSYCHD 7.65GB

-->

帖子完整标题:重拳 The.Hammer.2010.1080p.BluRay.x264-PSYCHD 7.65GB



◎译  名 重拳 / The Hammer / 胜利人生(港)
◎片  名 Hamill
◎年  代 2010
◎产  地 美国
◎类  别 运动
◎语  言 英语
◎上映日期 2010
◎IMDb评分 7.0/10 from 1672 users
◎IMDb链接 https://www.imdb.com/title/tt1094666
◎豆瓣评分 7.3/10 from 59 users
◎豆瓣链接 https://movie.douban.com/subject/3097479/
◎片  长 USA: 108 分钟
◎导  演 Oren Kaplan
◎编  剧 Joseph McKelheer / Eben Kostbar
◎主  演 Russell Harvard
      Raymond J. Barry
      Shoshannah Stern


◎标  签 励志 | 美国 | 传记 | 运动 | 聋人 | 重拳 | 2010 | 电影

◎简  介

  A coming of age drama following the life of Matt Hamill, the first deaf wrestler to win a National Collegiate Wrestling Championship.
  HAMILL is a sports drama depicting the struggles and successes Matt Hamill faces on the way to becoming a champion. Raised among those with the ability to hear, Matt later finds himself no less an outsider amidst the Deaf Community. Through sheer determination, he uses his perceived disability as an asset, and becomes both the first deaf wrestler to win a National Collegiate Championship and an inspirational force to the hearing and deaf alike.

Video
ID : 1
Format : AVC
Format/Info : Advanced Video Codec
Format profile : [email protected]
Format settings : CABAC / 5 Ref Frames
Format settings, CABAC : Yes
Format settings, Reference frames : 5 frames
Codec ID : V_MPEG4/ISO/AVC
Duration : 1 h 48 min
Bit rate : 8 550 kb/s
Width : 1 920 pixels
Height : 816 pixels
Display aspect ratio : 2.35:1
Frame rate mode : Constant
Frame rate : 23.976 (24000/1001/189150) FPS
Color space : YUV
Chroma subsampling : 4:2:0
Bit depth : 8 bits
Scan type : Progressive
Bits/(Pixel*Frame) : 0.228
Stream size : 6.35 GiB (83%)
Writing library : x264 core 133 r2334 a3ac64b
Encoding settings : cabac=1 / ref=5 / deblock=1:-3:-3 / analyse=0x3:0x113 / me=umh / subme=8 / psy=1 / psy_rd=1.00:0.00 / mixed_ref=1 / me_range=16 / chroma_me=1 / trellis=1 / 8x8dct=1 / cqm=0 / deadzone=21,11 / fast_pskip=1 / chroma_qp_offset=-2 / threads=18 / lookahead_threads=3 / sliced_threads=0 / nr=0 / decimate=1 / interlaced=0 / bluray_compat=0 / constrained_intra=0 / bframes=3 / b_pyramid=2 / b_adapt=2 / b_bias=0 / direct=3 / weightb=1 / open_gop=0 / weightp=2 / keyint=240 / keyint_min=24 / scenecut=40 / intra_refresh=0 / rc_lookahead=50 / rc=2pass / mbtree=1 / bitrate=8550 / ratetol=1.0 / qcomp=0.60 / qpmin=0 / qpmax=69 / qpstep=4 / cplxblur=20.0 / qblur=0.5 / ip_ratio=1.40 / aq=1:1.00
Language : English
Default : Yes
Forced : No

Audio
ID : 2
Format : DTS ES
Format/Info : Digital Theater Systems
Commercial name : DTS-ES Matrix
Codec ID : A_DTS
Duration : 1 h 48 min
Bit rate mode : Constant
Bit rate : 1 509 kb/s
Channel(s) : 6 channels
Channel(s)_Original : 7 channels
ChannelLayout_Original : C L R Ls Rs Cs LFE
Sampling rate : 48.0 kHz
Frame rate : 93.750 FPS (512 SPF)
Bit depth : 24 bits
Compression mode : Lossy
Stream size : 1.15 GiB (15%)
Language : English
Default : Yes
Forced : No

Text #1
ID : 3
Format : UTF-8
Codec ID : S_TEXT/UTF8
Codec ID/Info : UTF-8 Plain Text
Title : Forced
Language : English
Default : Yes
Forced : No

Text #2
ID : 4
Format : UTF-8
Codec ID : S_TEXT/UTF8
Codec ID/Info : UTF-8 Plain Text
Title : SDH
Language : English
Default : No
Forced : No

Text #3
ID : 5
Format : UTF-8
Codec ID : S_TEXT/UTF8
Codec ID/Info : UTF-8 Plain Text
Language : English
Default : No
Forced : No

Menu
00:00:00.000 : en:00:00:00.000
00:08:06.111 : en:00:08:06.111
00:18:11.590 : en:00:18:11.590
00:29:02.699 : en:00:29:02.699
00:34:42.330 : en:00:34:42.330
00:45:43.824 : en:00:45:43.824
00:52:41.367 : en:00:52:41.367
01:03:52.370 : en:01:03:52.370
01:11:23.112 : en:01:11:23.112
01:22:19.434 : en:01:22:19.434
01:32:24.789 : en:01:32:24.789
01:44:25.259 : en:01:44:25.259





1 个附件 售价 大小 下载 时间

The.Hammer.2010.1080p.BluRay.x264-PSYCHD.zip 0 金币 77.16K 112 次 1天前

#1楼
发帖时间:2020-08-02 08:18:25   |   回复数:0
游客组