squallzhao
一派掌门

[2006] [欧美] [剧情] [BD-1080P] 吸血家族汉密尔顿/汉密尔顿一家 The.Hamiltons.2006.1080p.BluRay.x264-PSYCHD 5.46GB

-->

帖子完整标题:吸血家族汉密尔顿/汉密尔顿一家 The.Hamiltons.2006.1080p.BluRay.x264-PSYCHD 5.46GB



◎译  名 吸血家族汉密尔顿 / 汉密尔顿一家 / 汉密尔顿凶宅(台) / 汉米尔顿家族
◎片  名 The Hamiltons
◎年  代 2006
◎产  地 美国
◎类  别 剧情 / 惊悚 / 恐怖
◎语  言 英语
◎上映日期 2006-11-09
◎IMDb评分 5.1/10 from 8363 users
◎IMDb链接 https://www.imdb.com/title/tt0443527
◎豆瓣评分 5.9/10 from 949 users
◎豆瓣链接 https://movie.douban.com/subject/1908323/
◎片  长 86 分钟
◎导  演 Mitchell Altieri / Phil Flores
◎编  剧 Mitchell Altieri / Phil Flores
◎主  演 Cory Knauf
      Samuel Child
      Joseph McKelheer


◎标  签 恐怖 | 美国 | 惊悚 | 吸血鬼 | 美国电影 | 血腥 | 恐怖电影 | 2006

◎简  介

  圣芭芭拉国际电影节和马利布电影节获得极高呼声的获奖影片。在外人看来,汉密尔顿一家就像一幅永不褪色的合家欢相片--完美得难以置信的美国家庭。他们是努力工作的合格美国公民,积极向本地的慈善团体捐款,参加市里的民意大会,对自己邻居总是非常尊重。但是,这些时常感受到他们敬意的邻居,最后往往会变成他们房子里的一具具腐烂的尸体……

Video
ID : 1
Format : AVC
Format/Info : Advanced Video Codec
Format profile : [email protected]
Format settings : CABAC / 4 Ref Frames
Format settings, CABAC : Yes
Format settings, Reference frames : 4 frames
Codec ID : V_MPEG4/ISO/AVC
Duration : 1 h 23 min
Bit rate : 8 653 kb/s
Width : 1 920 pixels
Height : 1 080 pixels
Display aspect ratio : 16:9
Frame rate mode : Constant
Frame rate : 25.000 FPS
Color space : YUV
Chroma subsampling : 4:2:0
Bit depth : 8 bits
Scan type : Progressive
Bits/(Pixel*Frame) : 0.167
Stream size : 4.91 GiB (90%)
Writing library : x264 core 138 r2358 9e941d1
Encoding settings : cabac=1 / ref=4 / deblock=1:-3:-3 / analyse=0x3:0x113 / me=umh / subme=8 / psy=1 / psy_rd=1.00:0.00 / mixed_ref=1 / me_range=16 / chroma_me=1 / trellis=1 / 8x8dct=1 / cqm=0 / deadzone=21,11 / fast_pskip=1 / chroma_qp_offset=-2 / threads=12 / lookahead_threads=2 / sliced_threads=0 / nr=0 / decimate=1 / interlaced=0 / bluray_compat=0 / constrained_intra=0 / bframes=3 / b_pyramid=2 / b_adapt=2 / b_bias=0 / direct=3 / weightb=1 / open_gop=0 / weightp=2 / keyint=250 / keyint_min=25 / scenecut=40 / intra_refresh=0 / rc_lookahead=50 / rc=2pass / mbtree=1 / bitrate=8653 / ratetol=1.0 / qcomp=0.60 / qpmin=0 / qpmax=69 / qpstep=4 / cplxblur=20.0 / qblur=0.5 / ip_ratio=1.40 / aq=1:1.00
Language : English
Default : Yes
Forced : No

Audio
ID : 2
Format : DTS ES
Format/Info : Digital Theater Systems
Commercial name : DTS-ES Matrix
Codec ID : A_DTS
Duration : 1 h 23 min
Bit rate mode : Constant
Bit rate : 768 kb/s
Channel(s) : 6 channels
Channel(s)_Original : 7 channels
ChannelLayout_Original : C L R Ls Rs Cs LFE
Sampling rate : 48.0 kHz
Frame rate : 93.750 FPS (512 SPF)
Bit depth : 24 bits
Compression mode : Lossy
Stream size : 456 MiB (8%)
Language : English
Default : Yes
Forced : No

Menu
00:00:00.000 : en:00:00:00.000
00:07:36.480 : en:00:07:36.480
00:13:38.400 : en:00:13:38.400
00:20:05.280 : en:00:20:05.280
00:26:48.960 : en:00:26:48.960
00:35:41.760 : en:00:35:41.760
00:43:12.480 : en:00:43:12.480
00:50:13.920 : en:00:50:13.920
00:57:10.080 : en:00:57:10.080
01:02:52.800 : en:01:02:52.800
01:08:00.480 : en:01:08:00.480
01:17:34.080 : en:01:17:34.080





1 个附件 售价 大小 下载 时间

The.Hamiltons.2006.1080p.BluRay.x264-PSYCHD.zip 0 金币 55.27K 280 次 9天前

#1楼
发帖时间:2020-08-02 08:15:23   |   回复数:0
游客组