squallzhao
一派掌门

[2006] [其他] [惊悚] [BD-1080P] 终结冬日 The.Last.Winter.2006.1080p.BluRay.x264-PSYCHD 8.74GB

-->

帖子完整标题:终结冬日 The.Last.Winter.2006.1080p.BluRay.x264-PSYCHD 8.74GB



◎译  名 终结冬日
◎片  名 the last winter
◎年  代 2006
◎产  地 美国 / 冰岛
◎类  别 惊悚 / 恐怖
◎语  言 英语
◎上映日期 2006-09-11
◎IMDb评分 5.6/10 from 8479 users
◎IMDb链接 https://www.imdb.com/title/tt0454864
◎豆瓣评分 5.2/10 from 214 users
◎豆瓣链接 https://movie.douban.com/subject/2085561/
◎片  长 101 分钟
◎导  演 拉瑞·凡斯登 Larry Fessenden
◎编  剧 拉瑞·凡斯登 Larry Fessenden / Robert Leaver
◎主  演 朗·普尔曼 Ron Perlman
      詹姆斯·勒格罗 James LeGros
      康妮·布里登 Connie Britton
      扎克·吉尔福德 Zach Gilford


◎标  签 恐怖 | 美国 | 科幻 | 惊悚 | 美国电影 | 环保 | 我看过的英语电影 | 我看过的恐怖电影

◎简  介

  在阿拉斯加的北部,北极圈内,一家石油公司的小分队正在紧张工作以尽快建立钻井基地,大规模的生产破坏了这片神秘土地的宁静。随后,一名成员莫名其妙的死亡。接下来,大家陷入了恐惧之中,死亡接踵而来……

Video
ID : 1
Format : AVC
Format/Info : Advanced Video Codec
Format profile : [email protected]
Format settings : CABAC / 5 Ref Frames
Format settings, CABAC : Yes
Format settings, Reference frames : 5 frames
Codec ID : V_MPEG4/ISO/AVC
Duration : 1 h 36 min
Bit rate : 12.2 Mb/s
Width : 1 920 pixels
Height : 824 pixels
Display aspect ratio : 2.35:1
Frame rate mode : Constant
Frame rate : 25.000 FPS
Color space : YUV
Chroma subsampling : 4:2:0
Bit depth : 8 bits
Scan type : Progressive
Bits/(Pixel*Frame) : 0.307
Stream size : 8.05 GiB (92%)
Writing library : x264 core 133 r2334 a3ac64b
Encoding settings : cabac=1 / ref=5 / deblock=1:-3:-3 / analyse=0x3:0x113 / me=umh / subme=8 / psy=1 / psy_rd=1.00:0.00 / mixed_ref=1 / me_range=16 / chroma_me=1 / trellis=1 / 8x8dct=1 / cqm=0 / deadzone=21,11 / fast_pskip=1 / chroma_qp_offset=-2 / threads=18 / lookahead_threads=3 / sliced_threads=0 / nr=0 / decimate=1 / interlaced=0 / bluray_compat=0 / constrained_intra=0 / bframes=3 / b_pyramid=2 / b_adapt=2 / b_bias=0 / direct=3 / weightb=1 / open_gop=0 / weightp=2 / keyint=250 / keyint_min=25 / scenecut=40 / intra_refresh=0 / rc_lookahead=50 / rc=2pass / mbtree=1 / bitrate=12153 / ratetol=1.0 / qcomp=0.60 / qpmin=0 / qpmax=69 / qpstep=4 / cplxblur=20.0 / qblur=0.5 / ip_ratio=1.40 / aq=1:1.00
Language : English
Default : Yes
Forced : No

Audio
ID : 2
Format : DTS ES
Format/Info : Digital Theater Systems
Commercial name : DTS-ES Matrix
Codec ID : A_DTS
Duration : 1 h 36 min
Bit rate mode : Constant
Bit rate : 768 kb/s
Channel(s) : 6 channels
Channel(s)_Original : 7 channels
ChannelLayout_Original : C L R Ls Rs Cs LFE
Sampling rate : 48.0 kHz
Frame rate : 93.750 FPS (512 SPF)
Bit depth : 24 bits
Compression mode : Lossy
Stream size : 532 MiB (6%)
Language : English
Default : Yes
Forced : No

Menu
00:00:00.000 : en:00:00:00.000
00:08:03.080 : en:00:08:03.080
00:15:40.680 : en:00:15:40.680
00:23:18.280 : en:00:23:18.280
00:31:27.600 : en:00:31:27.600
00:40:42.960 : en:00:40:42.960
00:48:36.680 : en:00:48:36.680
00:56:47.560 : en:00:56:47.560
01:04:49.080 : en:01:04:49.080
01:11:46.120 : en:01:11:46.120
01:20:21.960 : en:01:20:21.960
01:29:25.880 : en:01:29:25.880





1 个附件 售价 大小 下载 时间

The.Last.Winter.2006.1080p.BluRay.x264-PSYCHD.zip 0 金币 88.89K 91 次 1天前

#1楼
发帖时间:2020-08-02 08:09:20   |   回复数:0
游客组