fg603603
一派掌门

[更 早] [其他] [剧情] [BD-1080P] 欧洲欧洲 Europa.Europa.1990.1080p.BluRay.x264-USURY 10.93GB

-->

帖子完整标题:欧洲欧洲 Europa.Europa.1990.1080p.BluRay.x264-USURY 10.93GB



◎译  名 欧洲欧洲 / Europa Europa / 希特勒青年队队员所罗门 / 欧罗巴,欧罗巴
◎片  名 Hitlerjunge Salomon
◎年  代 1990
◎产  地 法国 / 德国 / 波兰
◎类  别 剧情 / 历史 / 战争
◎语  言 德语 / 波兰语 / 希伯来语 / 俄语
◎上映日期 1990-11-14
◎IMDb评分 7.6/10 from 14747 users
◎IMDb链接 https://www.imdb.com/title/tt0099776
◎豆瓣评分 7.9/10 from 1049 users
◎豆瓣链接 https://movie.douban.com/subject/1294557/
◎片  长 112 分钟
◎导  演 Agnieszka Holland
◎编  剧 Agnieszka Holland
◎主  演 Marco Hofschneider
      Julie Delpy
      René Hofschneider
      Piotr Kozlowski


◎标  签 二战 | 德国 | 战争 | 波兰 | 犹太人 | 德国电影 | 法国 | 1990

◎简  介

  影片根据Solly Perel的真实经历改编,讲述了和希特勒同一天生日的13岁德国犹太男孩Solly在二战期间通过机敏过人的应变能力和绝无仅有的巧合,保全生命,并最终与集中营中的兄长团聚的令人惊叹的故事。片中年轻的Solly是苏联共青团员,是德军的战斗英雄,是希特勒青年队的队员,甚至还爱上了一个纯雅利安女孩,但犹太人的特殊标志——割礼,却无时无刻提醒着他的身份。从无所谓、迷茫到怨恨,战争让他承担了太多与年龄不相称的压力,但最终他依然认同了自己的民族,并在成年后毫不犹豫地为自己的儿子也实行了割礼。

◎获奖情况

  第64届奥斯卡金像奖(1992)
  最佳改编剧本(提名) 阿格涅丝卡·霍兰

  第46届英国电影学院奖(1993)
  电影奖 最佳非英语片(提名) 艾特·布奥尼 / 阿格涅丝卡·霍兰 / 玛格丽特·梅内格

Video
ID : 1
Format : AVC
Format/Info : Advanced Video Codec
Format profile : [email protected]
Format settings : CABAC / 4 Ref Frames
Format settings, CABAC : Yes
Format settings, Reference frames : 4 frames
Codec ID : V_MPEG4/ISO/AVC
Duration : 1 h 52 min
Bit rate : 13.3 Mb/s
Width : 1 792 pixels
Height : 1 080 pixels
Display aspect ratio : 5:3
Frame rate mode : Constant
Frame rate : 23.976 (24000/1001/189150) FPS
Color space : YUV
Chroma subsampling : 4:2:0
Bit depth : 8 bits
Scan type : Progressive
Bits/(Pixel*Frame) : 0.286
Stream size : 10.4 GiB (95%)
Writing library : x264 core 157 r2969 d4099dd
Encoding settings : cabac=1 / ref=4 / deblock=1:-3:-3 / analyse=0x3:0x133 / me=umh / subme=9 / psy=1 / psy_rd=1.00:0.00 / mixed_ref=1 / me_range=16 / chroma_me=1 / trellis=2 / 8x8dct=1 / cqm=0 / deadzone=21,11 / fast_pskip=0 / chroma_qp_offset=-2 / threads=18 / lookahead_threads=1 / sliced_threads=0 / nr=0 / decimate=1 / interlaced=0 / bluray_compat=0 / constrained_intra=0 / bframes=3 / b_pyramid=2 / b_adapt=1 / b_bias=0 / direct=3 / weightb=1 / open_gop=0 / weightp=2 / keyint=240 / keyint_min=24 / scenecut=40 / intra_refresh=0 / rc_lookahead=50 / rc=2pass / mbtree=1 / bitrate=13262 / ratetol=1.0 / qcomp=0.60 / qpmin=0 / qpmax=69 / qpstep=4 / cplxblur=20.0 / qblur=0.5 / ip_ratio=1.40 / aq=1:1.00
Language : English
Default : Yes
Forced : No

Audio
ID : 2
Format : FLAC
Format/Info : Free Lossless Audio Codec
Codec ID : A_FLAC
Duration : 1 h 52 min
Bit rate mode : Variable
Bit rate : 657 kb/s
Channel(s) : 1 channel
Channel layout : C
Sampling rate : 48.0 kHz
Frame rate : 11.719 FPS (4096 SPF)
Bit depth : 24 bits
Compression mode : Lossless
Stream size : 528 MiB (5%)
Writing library : libFLAC 1.2.1 (UTC 2007-09-17)
Language : German
Default : Yes
Forced : No

Text
ID : 3
Format : UTF-8
Codec ID : S_TEXT/UTF8
Codec ID/Info : UTF-8 Plain Text
Duration : 1 h 49 min
Bit rate : 33 b/s
Count of elements : 1009
Stream size : 27.0 KiB (0%)
Title : English
Language : English
Default : Yes
Forced : Yes

Menu
00:00:00.000 : en:00:00:00.000
00:04:08.373 : en:00:04:08.373
00:08:27.006 : en:00:08:27.006
00:17:14.492 : en:00:17:14.492
00:21:26.619 : en:00:21:26.619
00:28:00.554 : en:00:28:00.554
00:35:28.752 : en:00:35:28.752
00:38:30.266 : en:00:38:30.266
00:43:02.371 : en:00:43:02.371
00:45:51.248 : en:00:45:51.248
00:52:25.517 : en:00:52:25.517
00:55:40.003 : en:00:55:40.003
01:05:58.830 : en:01:05:58.830
01:12:19.669 : en:01:12:19.669
01:18:10.811 : en:01:18:10.811
01:24:18.679 : en:01:24:18.679
01:31:52.841 : en:01:31:52.841
01:38:12.595 : en:01:38:12.595
01:41:30.918 : en:01:41:30.918
01:49:23.056 : en:01:49:23.056





1 个附件 售价 大小 下载 时间

Europa.Europa.1990.1080p.BluRay.x264-USURY.zip 0 金币 56.11K 476 次 10天前

#1楼
发帖时间:2020-08-01 16:00:12   |   回复数:1
911degrees
隐世仙人♂
非常感谢,谢谢分享
10天前 #2楼
游客组