fg603603
一派掌门

[更 早] [其他] [剧情] [BD-1080P] 不朽故事 The.Immortal.Story.1968.English.Version.1080p.BluRay.x264-USURY 4.37GB

-->

帖子完整标题:不朽故事 The.Immortal.Story.1968.English.Version.1080p.BluRay.x264-USURY 4.37GB



◎译  名 不朽故事 / The Immortal Story / Une histoire immortelle
◎片  名 The Immortal Story
◎年  代 1968
◎产  地 法国
◎类  别 剧情
◎语  言 English / French
◎上映日期 1968-05-24
◎IMDb评分 7.1/10 from 2482 users
◎IMDb链接 https://www.imdb.com/title/tt0063127
◎豆瓣评分 7.1/10 from 286 users
◎豆瓣链接 https://movie.douban.com/subject/2068301/
◎导  演 奥逊·威尔斯 Orson Welles
◎编  剧 卡琳·布里克森 Karen Blixen / 奥逊·威尔斯 Orson Welles / Louise de Vilmorin
◎主  演 让娜·莫罗 Jeanne Moreau
      奥逊·威尔斯 Orson Welles
      罗热·科焦 Roger Coggio
      诺曼·埃什利 Norman Eshley


◎标  签 奥逊·威尔斯 | 法国 | OrsonWelles | 1960s | 美国 | 奥森·威尔斯 | 1968 | Orson_Welles

◎简  介

  威爾斯唯一一部公映的彩色電影,故事依舊奇情:澳門富商從秘書口中聽到一個愛情傳說,有人為了香燈有後願意付錢找人與妻子上床。傳說歸傳說,但澳門富商卻要使這個不朽故事成真,找來美女珍.摩露,當正是自己妻子,要她找人轟烈地做愛做的事。乍聽下來真是一場天方夜譚,但影片拍來感人至深,53歲的威爾斯與成熟的珍.摩露演出動人不已,最後一個鏡頭更被影迷形容是「魔術」,令影片入圍柏林國際電影節競逐最佳電影金熊獎。
  The only colour film by Welles publicly released is another showcase of the absurdity of human nature. A Macau millionaire is told a legend about someone who is willing to pay a huge sum for someone who would sleep with his wife in order to produce an heir. In an act to make the legend real and to immortalise it, the millionaire finds Jeanne Moreau to be his wife and starts to search for the man who would make love to her. A potent performance by Welles and Moreau makes the film purely magical; a Golden Berlin Bear nominee for Berlin International Film Festival.

◎获奖情况

  第18届柏林国际电影节(1968)
  金熊奖 最佳影片(提名) 奥逊·威尔斯

Video
ID : 1
Format : AVC
Format/Info : Advanced Video Codec
Format profile : [email protected]
Format settings : CABAC / 4 Ref Frames
Format settings, CABAC : Yes
Format settings, Reference frames : 4 frames
Codec ID : V_MPEG4/ISO/AVC
Duration : 58 min 0 s
Bit rate : 10.1 Mb/s
Width : 1 792 pixels
Height : 1 080 pixels
Display aspect ratio : 5:3
Frame rate mode : Constant
Frame rate : 23.976 FPS
Color space : YUV
Chroma subsampling : 4:2:0
Bit depth : 8 bits
Scan type : Progressive
Bits/(Pixel*Frame) : 0.219
Stream size : 4.11 GiB (94%)
Writing library : x264 core 148 r2705 3f5ed56
Encoding settings : cabac=1 / ref=4 / deblock=1:0:0 / analyse=0x3:0x133 / me=umh / subme=9 / psy=1 / psy_rd=1.00:0.00 / mixed_ref=1 / me_range=16 / chroma_me=1 / trellis=1 / 8x8dct=1 / cqm=0 / deadzone=21,11 / fast_pskip=0 / chroma_qp_offset=-2 / threads=18 / lookahead_threads=1 / sliced_threads=0 / nr=0 / decimate=1 / interlaced=0 / bluray_compat=0 / constrained_intra=0 / bframes=3 / b_pyramid=2 / b_adapt=2 / b_bias=0 / direct=3 / weightb=1 / open_gop=0 / weightp=2 / keyint=250 / keyint_min=23 / scenecut=40 / intra_refresh=0 / rc_lookahead=50 / rc=2pass / mbtree=1 / bitrate=10149 / ratetol=1.0 / qcomp=0.60 / qpmin=0 / qpmax=69 / qpstep=4 / cplxblur=20.0 / qblur=0.5 / ip_ratio=1.40 / aq=1:1.00
Language : English
Default : Yes
Forced : No

Audio
ID : 2
Format : FLAC
Format/Info : Free Lossless Audio Codec
Codec ID : A_FLAC
Duration : 58 min 0 s
Bit rate mode : Variable
Bit rate : 638 kb/s
Channel(s) : 1 channel
Channel layout : C
Sampling rate : 48.0 kHz
Frame rate : 11.719 FPS (4096 SPF)
Bit depth : 24 bits
Compression mode : Lossless
Stream size : 265 MiB (6%)
Writing library : libFLAC 1.2.1 (UTC 2007-09-17)
Language : English
Default : Yes
Forced : No

Menu
00:00:00.000 : en:00:00:00.000
00:01:15.075 : en:00:01:15.075
00:03:12.859 : en:00:03:12.859
00:06:06.449 : en:00:06:06.449
00:09:01.916 : en:00:09:01.916
00:10:57.824 : en:00:10:57.824
00:12:14.233 : en:00:12:14.233
00:17:30.299 : en:00:17:30.299
00:23:52.473 : en:00:23:52.473
00:26:10.986 : en:00:26:10.986
00:32:43.753 : en:00:32:43.753
00:36:16.216 : en:00:36:16.216
00:49:27.673 : en:00:49:27.673
00:54:16.670 : en:00:54:16.670
00:56:55.245 : en:00:56:55.245





1 个附件 售价 大小 下载 时间

The.Immortal.Story.1968.English.Version.1080p.BluRay.x264-USURY.zip 0 金币 176.44K 567 次 10天前

#1楼
发帖时间:2020-08-01 15:57:19   |   回复数:1
911degrees
隐世仙人♂
非常感谢,谢谢分享
10天前 #2楼
游客组