coor
一代宗师

[2008] [欧美] [剧情] [BD-1080P] 红带高手/格斗红腰带 Redbelt.2008.1080p.BluRay.x264.DD5.1-FGT 7.81GB

-->



◎译  名 红带高手 / 格斗红腰带 / 格斗风云(台)
◎片  名 Redbelt
◎年  代 2008
◎产  地 美国
◎类  别 剧情 / 动作 / 运动
◎语  言 英语 / 葡萄牙语 / 日语
◎上映日期 2008-04-07
◎IMDb评分 6.7/10 from 20120 users
◎IMDb链接 https://www.imdb.com/title/tt1012804
◎豆瓣评分 6.5/10 from 1238 users
◎豆瓣链接 https://movie.douban.com/subject/2134401/
◎片  长 99 分钟
◎导  演 大卫·马梅 David Mamet
◎编  剧 大卫·马梅 David Mamet
◎主  演 马克斯·马蒂尼 Max Martini
      Matt Cable
      切瓦特·埃加福 Chiwetel Ejiofor
      艾莉丝·布拉加 Alice Braga
      何塞·巴勃罗·坎蒂略 Jose Pablo Cantillo
      艾米莉·莫迪默 Emily Mortimer
      凯茜·卡琳·瑞恩 Cathy Cahlin Ryan
      露西安娜·索扎 Luciana Souza
      西里尔·高山 Cyril Takayama
      Scott Barry
      瑞奇·杰 Ricky Jay
      兰迪·库卓 Randy Couture
      John Machado
      罗德里戈·桑托罗 Rodrigo Santoro
      Ricardo Wilke
      卡罗琳·德索扎 Caroline de Souza Correa
      蒂姆·艾伦 Tim Allen
      杰克·华莱士 Jack Wallace
      杰克·约翰逊 Jake M. Johnson
      丹尼斯·基弗 Dennis Keiffer
      Rob Reinis
      多米尼克·霍夫曼 Dominic Hoffman
      大卫·佩默 David Paymer
      乔·曼特纳 Joe Mantegna
      丽贝卡·彼得根 Rebecca Pidgeon
      詹妮弗·格雷 Jennifer Grey
      Linda Kimbrough
      雷·博姆·博姆·曼西尼 Ray 'Boom Boom' Mancini
      史蒂夫·德卡斯特罗 Steve DeCastro
      艾德·奥尼尔 Ed O'Neill
      马特·马洛伊 Matt Malloy
      达蒙·海瑞曼 Damon Herriman
      Frank Trigg
      文森特·瓜斯塔费罗 Vincent Guastaferro
      Mike Goldberg
      Josh Rafferty
      J.J. Johnston
      Christopher Kaldor
      西蒙·瑞 Simon Rhee
      Troy Gilbert
      伊鲁山度 Dan Inosanto
      吉恩·拉贝尔 Gene LeBell
      提诺·斯特劳克曼 Tino Struckmann
      Douglas Barcellos
      塔耶尔迪卡斯特罗 Thierre Di Castro
      马克奥·皮茨 Marc Opitz
      艾米丽·派克 Emily Peck
      约翰·罗伯特 John Robert
      Lee Ryder
      Daniel Cage Theodore


◎标  签 美国 | 动作 | 剧情 | 美国电影 | 2008 | 格斗 | Redbelt | 我看过的电影

◎简  介

  故事发生在车水马龙的繁华大都市洛杉矶西区,一帮“武林高手”聚集于此,经常相互切磋技艺。其中,有一个十分不起眼的男人,他的名字叫麦克(切瓦特·埃加福特 Chiwetel Ejiofor 饰)。麦克是一名防身术教练,功夫了得,然而,平日里习惯低调做人的他并不希望过多的展现自己的实力。
  麦克和妻子桑德拉(艾莉丝·布拉加 Alice Braga 饰)开了一间武馆,以此维生,尽管武馆的生意一直平平,但恩爱的夫妻两人对于目前平静的生活感到十分满意。然而,一场意外的发生让麦克无奈的被卷入了利益纷争的漩涡之中,还背负上了累累的债务。为了保护家人,麦克不得不挺身而出,为自己的荣誉而战。
Video
ID : 1
Format : AVC
Format/Info : Advanced Video Codec
Format profile : [email protected]
Format settings, CABAC : Yes
Format settings, ReFrames : 5 frames
Codec ID : V_MPEG4/ISO/AVC
Duration : 1h 39mn
Bit rate : 10.6 Mbps
Width : 1 920 pixels
Height : 800 pixels
Display aspect ratio : 2.40:1
Frame rate mode : Constant
Frame rate : 23.976 fps
Color space : YUV
Chroma subsampling : 4:2:0
Bit depth : 8 bits
Scan type : Progressive
Bits/(Pixel*Frame) : 0.289
Stream size : 7.21 GiB (92%)
Writing library : x264 core 61 r967M 869d5e4
Encoding settings : cabac=1 / ref=5 / deblock=1:-3:-3 / analyse=0x3:0x133 / me=umh / subme=7 / psy_rd=1.2:0.0 / brdo=1 / mixed_ref=1 / me_range=32 / chroma_me=1 / trellis=0 / 8x8dct=1 / cqm=2 / deadzone=8,6 / chroma_qp_offset=-2 / threads=6 / nr=0 / decimate=1 / mbaff=0 / bframes=16 / b_pyramid=1 / b_adapt=1 / b_bias=0 / direct=1 / wpredb=1 / bime=1 / keyint=250 / keyint_min=25 / scenecut=40(pre) / rc=2pass / bitrate=10637 / ratetol=1.0 / qcomp=1.00 / qpmin=10 / qpmax=51 / qpstep=4 / cplxblur=20.0 / qblur=0.5 / ip_ratio=1.40 / pb_ratio=1.30 / aq=2:0.80
Language : English
Default : Yes
Forced : No

Audio
ID : 2
Format : AC-3
Format/Info : Audio Coding 3
Mode extension : CM (complete main)
Format settings, Endianness : Big
Codec ID : A_AC3
Duration : 1h 39mn
Bit rate mode : Constant
Bit rate : 640 Kbps
Channel(s) : 6 channels
Channel positions : Front: L C R, Side: L R, LFE
Sampling rate : 48.0 KHz
Frame rate : 31.250 fps (1536 spf)
Compression mode : Lossy
Stream size : 454 MiB (6%)
Language : English
Default : Yes
Forced : No

Text #1
ID : 3
Format : UTF-8
Codec ID : S_TEXT/UTF8
Codec ID/Info : UTF-8 Plain Text
Language : English
Default : Yes
Forced : No

Text #2
ID : 4
Format : UTF-8
Codec ID : S_TEXT/UTF8
Codec ID/Info : UTF-8 Plain Text
Language : French
Default : No
Forced : No

Text #3
ID : 5
Format : UTF-8
Codec ID : S_TEXT/UTF8
Codec ID/Info : UTF-8 Plain Text
Language : Swedish
Default : No
Forced : No





1 个附件 售价 大小 下载 时间

Redbelt.2008.1080p.BluRay.x264.DD5.1-FGT.torrent 0 金币 78.72K 273 次 12天前

#1楼
发帖时间:2020-06-30 21:34:34   |   回复数:1
911degrees
隐世仙人♂
非常感谢,谢谢分享
11天前 #2楼
游客组