coor
一代宗师

[2014] [欧美] [喜剧] [BD-1080P] 校内僵尸联谊会/殭屍真的好麻煩 The.Coed.And.The.Zombie.Stoner.2014.1080p.BluRay.x264.DTS-FGT 7.

-->



◎译  名 校内僵尸联谊会 / 殭屍真的好麻煩(台)
◎片  名 The Coed And The Zombie Stoner
◎年  代 2014
◎产  地 美国
◎类  别 喜剧 / 恐怖
◎语  言 英语
◎上映日期 2014
◎IMDb评分 3.5/10 from 1224 users
◎IMDb链接 https://www.imdb.com/title/tt3608654
◎豆瓣评分 3.1/10 from 79 users
◎豆瓣链接 https://movie.douban.com/subject/25912886/
◎片  长 91分钟
◎导  演 Glenn Miller
◎编  剧 Scotty Mullen
◎主  演 Catherine Annette


◎标  签 美国 | 2014 | 丧尸 | 情色 | 是情色片? | 校内僵尸联谊会 | 美国电影 | 烂片

◎简  介

  与其说讨厌的联谊会活动,不如说女主角就是一名女屌丝,口味很重的爱上了僵尸男,并带着僵尸男到处招摇过市,僵尸男在被挑衅后咬了对方,随后校园尸潮爆发。女屌丝在逃亡途中发现大麻烟有治愈僵尸的能力,于是一切罪魁祸首完美蜕变为拯救万民与水火的英雄女屌丝……
Video
ID : 1
Format : AVC
Format/Info : Advanced Video Codec
Format profile : [email protected]
Format settings, CABAC : Yes
Format settings, ReFrames : 4 frames
Codec ID : V_MPEG4/ISO/AVC
Duration : 1h 31mn
Bit rate : 10.9 Mbps
Width : 1 920 pixels
Height : 1 080 pixels
Display aspect ratio : 16:9
Frame rate mode : Constant
Frame rate : 23.976 (24000/1001) fps
Color space : YUV
Chroma subsampling : 4:2:0
Bit depth : 8 bits
Scan type : Progressive
Bits/(Pixel*Frame) : 0.219
Stream size : 6.96 GiB (90%)
Writing library : x264 core 142 r2491 24e4fed
Encoding settings : cabac=1 / ref=4 / deblock=1:-1:-1 / analyse=0x3:0x133 / me=umh / subme=7 / psy=1 / psy_rd=1.00:0.15 / mixed_ref=1 / me_range=16 / chroma_me=1 / trellis=1 / 8x8dct=1 / cqm=0 / deadzone=21,11 / fast_pskip=0 / chroma_qp_offset=-3 / threads=18 / lookahead_threads=3 / sliced_threads=0 / nr=0 / decimate=1 / interlaced=0 / bluray_compat=0 / constrained_intra=0 / bframes=3 / b_pyramid=2 / b_adapt=1 / b_bias=0 / direct=3 / weightb=1 / open_gop=0 / weightp=2 / keyint=240 / keyint_min=23 / scenecut=40 / intra_refresh=0 / rc_lookahead=50 / rc=crf / mbtree=1 / crf=20.0 / qcomp=0.60 / qpmin=10 / qpmax=51 / qpstep=4 / ip_ratio=1.40 / aq=1:1.00
Language : English
Default : Yes
Forced : No

Audio
ID : 2
Format : DTS
Format/Info : Digital Theater Systems
Mode : 16
Format settings, Endianness : Big
Codec ID : A_DTS
Duration : 1h 31mn
Bit rate mode : Constant
Bit rate : 960 Kbps
Channel(s) : 6 channels
Channel positions : Front: L C R, Side: L R, LFE
Sampling rate : 48.0 KHz
Frame rate : 93.750 fps (512 spf)
Bit depth : 24 bits
Compression mode : Lossy
Stream size : 628 MiB (8%)
Language : English
Default : No
Forced : No

Menu
00:00:00.000 : en:00:00:00.000
00:09:59.974 : en:00:09:59.974
00:19:59.990 : en:00:19:59.990
00:29:59.965 : en:00:29:59.965
00:39:59.981 : en:00:39:59.981
00:49:59.997 : en:00:49:59.997
00:59:59.971 : en:00:59:59.971
01:09:59.987 : en:01:09:59.987
01:19:59.962 : en:01:19:59.962





1 个附件 售价 大小 下载 时间

The.Coed.And.The.Zombie.Stoner.2014.1080p.BluRay.x264.DTS-FGT.torrent 0 金币 77.88K 252 次 12天前

#1楼
发帖时间:2020-06-30 20:54:15   |   回复数:1
911degrees
隐世仙人♂
非常感谢,谢谢分享
11天前 #2楼
游客组