coor
一代宗师

[2008] [欧美] [其他] [BD-1080P] 食品公司/毒食难肥 Food.Inc.2008.1080p.BluRay.x264.DTS-FGT 8.01GB

-->



◎译  名 食品公司 / 毒食难肥
◎片  名 Food, Inc.
◎年  代 2008
◎产  地 美国
◎类  别 纪录片
◎语  言 英语
◎上映日期 2009-06-12
◎IMDb评分 7.8/10 from 48877 users
◎IMDb链接 https://www.imdb.com/title/tt1286537
◎豆瓣评分 8.6/10 from 30111 users
◎豆瓣链接 https://movie.douban.com/subject/3564499/
◎片  长 USA: 94 分钟
◎导  演 Robert Kenner
◎主  演 Michael Pollan
      Eric Schlosser


◎标  签 纪录片 | 美国 | 食品安全 | 环保 | 真相 | 健康 | 2009 | 食品公司

◎简  介

  随着工业文明的高度发展,各种各样的食物也变得供不应求,但在这看似繁华的背后,食品安全却已到了不容忽视的地步。影片从快餐业入手,逐步向种植业、畜牧业、养殖业延展开去,揭露了大型食品公司经营者为了获取高额利润不惜改变动植物的生长方式和生长周期,他们在经营上取得丰厚的利润,而代价却是公众的健康和安全。在看似清洁的食品加工流水线上,沙门氏菌和希氏大肠杆菌毫无阻碍渗透到食物当中,毒害着人类的生命。由于政策等方面原因,人们无法也无力拒绝大公司强加于身的迫害。在金钱和欲望面前,我们自取灭亡……
  本片荣获2009年华盛顿影评人协会最佳纪录片奖。

◎获奖情况

  第82届奥斯卡金像奖(2010)
  最佳纪录长片(提名) 罗伯特·肯纳

  第8届华盛顿影评人协会奖(2009)
  最佳纪录片

  第22届芝加哥影评人协会奖(2009)
  最佳纪录片(提名)

  第18届东南影评人协会奖(2009)
  最佳纪录片
Video
ID : 1
Format : AVC
Format/Info : Advanced Video Codec
Format profile : [email protected]
Format settings, CABAC : Yes
Format settings, ReFrames : 3 frames
Codec ID : V_MPEG4/ISO/AVC
Duration : 1h 30mn
Bit rate : 12.0 Mbps
Width : 1 920 pixels
Height : 1 080 pixels
Display aspect ratio : 16:9
Frame rate mode : Constant
Frame rate : 25.000 fps
Color space : YUV
Chroma subsampling : 4:2:0
Bit depth : 8 bits
Scan type : Progressive
Bits/(Pixel*Frame) : 0.231
Stream size : 7.37 GiB (92%)
Writing library : x264 core 110
Encoding settings : cabac=1 / ref=3 / deblock=1:-1:-1 / analyse=0x1:0x131 / me=hex / subme=7 / psy=1 / psy_rd=1.00:0.10 / mixed_ref=0 / me_range=16 / chroma_me=1 / trellis=1 / 8x8dct=0 / cqm=0 / deadzone=21,11 / fast_pskip=1 / chroma_qp_offset=-3 / threads=6 / sliced_threads=0 / nr=0 / decimate=1 / interlaced=0 / constrained_intra=0 / bframes=3 / b_pyramid=0 / b_adapt=1 / b_bias=0 / direct=3 / weightb=1 / open_gop=1 / weightp=2 / keyint=250 / keyint_min=25 / scenecut=40 / intra_refresh=0 / rc_lookahead=40 / rc=2pass / mbtree=1 / bitrate=12000 / ratetol=1.0 / qcomp=0.60 / qpmin=10 / qpmax=51 / qpstep=4 / cplxblur=20.0 / qblur=0.5 / vbv_maxrate=24000 / vbv_bufsize=24000 / ip_ratio=1.40 / aq=1:1.00 / nal_hrd=none
Language : English
Default : Yes
Forced : Yes

Audio
ID : 2
Format : DTS
Format/Info : Digital Theater Systems
Mode : 16
Format settings, Endianness : Big
Codec ID : A_DTS
Duration : 1h 30mn
Bit rate mode : Constant
Bit rate : 768 Kbps
Channel(s) : 6 channels
Channel positions : Front: L C R, Side: L R, LFE
Sampling rate : 48.0 KHz
Frame rate : 93.750 fps (512 spf)
Bit depth : 16 bits
Compression mode : Lossy
Stream size : 494 MiB (6%)
Language : English
Default : No
Forced : Yes





1 个附件 售价 大小 下载 时间

Food.Inc.2008.1080p.BluRay.x264.DTS-FGT.torrent 0 金币 80.65K 273 次 12天前

#1楼
发帖时间:2020-06-30 20:50:35   |   回复数:2
911degrees
隐世仙人♂
非常感谢,谢谢分享
11天前 #2楼
jokingcheung
一代宗师
谢谢分享
11天前 #3楼
游客组