coor
一代宗师

[2014] [欧美] [动作] [BD-1080P] 阿登的狂挫/狂怒之阿登战役 Ardennes.Fury.2014.1080p.BluRay.x264.DTS-FGT 7.63GB

-->



◎译  名 阿登的狂挫 / 狂怒之阿登战役 / 阿登之狂怒
◎片  名 Ardennes Fury
◎年  代 2014
◎产  地 美国
◎类  别 动作 / 战争
◎语  言 英语
◎上映日期 2014-11-11(美国)
◎IMDb评分 2.2/10 from 804 users
◎IMDb链接 https://www.imdb.com/title/tt3922754
◎豆瓣评分 3.3/10 from 180 users
◎豆瓣链接 https://movie.douban.com/subject/26258896/
◎片  长 87分钟
◎导  演 Joseph J. Lawson
◎编  剧 Joseph J. Lawson / Stephen Llorens
◎主  演 Tom Stedham
      Bill Voorhees
      Tino Struckmann


◎标  签 二战 | 烂片 | 战争 | 美国 | 美国电影 | 最近几年看的最烂片 | 2014 | 恶搞

◎简  介

  本片是由Joseph J. Lawson执导的一部影片。1944年,战事如火如荼,一支美国的坦克队伍英勇作战,却难敌纳粹军队的攻击,屡屡败退,千钧一发之际,他们找到了突破口,终于冲出敌军的防线。然而此时坦克燃料用完,他们不得不步行前进,路上他们遇到了一个修女,并从修女口中得知不远处孤儿院还有许多孩子等待救援,原本负责保护他们的美军护送队已被德军处决,修女执意回去保护孩子,为了保护无辜的人们,士兵们跟随修女来到了孤儿院……
Video
ID : 1
Format : AVC
Format/Info : Advanced Video Codec
Format profile : [email protected]
Format settings, CABAC : Yes
Format settings, ReFrames : 4 frames
Codec ID : V_MPEG4/ISO/AVC
Duration : 1h 27mn
Bit rate : 11.3 Mbps
Width : 1 920 pixels
Height : 1 080 pixels
Display aspect ratio : 16:9
Frame rate mode : Constant
Frame rate : 23.976 fps
Color space : YUV
Chroma subsampling : 4:2:0
Bit depth : 8 bits
Scan type : Progressive
Bits/(Pixel*Frame) : 0.227
Stream size : 6.90 GiB (90%)
Writing library : x264 core 142 r2491 24e4fed
Encoding settings : cabac=1 / ref=4 / deblock=1:0:0 / analyse=0x3:0x113 / me=umh / subme=7 / psy=1 / psy_rd=1.00:0.00 / mixed_ref=1 / me_range=16 / chroma_me=1 / trellis=1 / 8x8dct=1 / cqm=0 / deadzone=21,11 / fast_pskip=0 / chroma_qp_offset=-2 / threads=18 / lookahead_threads=3 / sliced_threads=0 / nr=0 / decimate=1 / interlaced=0 / bluray_compat=0 / constrained_intra=0 / bframes=3 / b_pyramid=2 / b_adapt=1 / b_bias=0 / direct=1 / weightb=1 / open_gop=0 / weightp=2 / keyint=250 / keyint_min=23 / scenecut=40 / intra_refresh=0 / rc_lookahead=40 / rc=crf / mbtree=1 / crf=20.0 / qcomp=0.60 / qpmin=0 / qpmax=69 / qpstep=4 / ip_ratio=1.40 / aq=1:1.00
Language : English
Default : No
Forced : No

Audio
ID : 2
Format : DTS
Format/Info : Digital Theater Systems
Mode : 16
Format settings, Endianness : Big
Codec ID : A_DTS
Duration : 1h 27mn
Bit rate mode : Constant
Bit rate : 960 Kbps
Channel(s) : 6 channels
Channel positions : Front: L C R, Side: L R, LFE
Sampling rate : 48.0 KHz
Frame rate : 93.750 fps (512 spf)
Bit depth : 16 bits
Compression mode : Lossy
Stream size : 599 MiB (8%)
Language : English
Default : No
Forced : No





1 个附件 售价 大小 下载 时间

Ardennes.Fury.2014.1080p.BluRay.x264.DTS-FGT.torrent 0 金币 76.93K 245 次 12天前

#1楼
发帖时间:2020-06-30 20:47:45   |   回复数:1
911degrees
隐世仙人♂
非常感谢,谢谢分享
11天前 #2楼
游客组