coor
一代宗师

[更 早] [欧美] [其他] [BD-1080P] 男子汉大丈夫/神枪游侠 Man.Without.a.Star.1955.1080p.BluRay.x264.DD2.0-FGT 6.30GB

-->



◎译  名 男子汉大丈夫 / 神枪游侠(港)
◎片  名 Man Without a Star
◎年  代 1955
◎产  地 美国
◎类  别 西部
◎语  言 英语
◎上映日期 1955-03-24
◎IMDb评分 6.9/10 from 2847 users
◎IMDb链接 https://www.imdb.com/title/tt0048340
◎豆瓣评分 7.3/10 from 155 users
◎豆瓣链接 https://movie.douban.com/subject/1303491/
◎片  长 89 分钟
◎导  演 金·维多 King Vidor
◎编  剧 Borden Chase / D.D. Beauchamp / Dee Linford
◎主  演 柯克·道格拉斯 Kirk Douglas
      珍妮·克雷恩 Jeanne Crain
      克莱尔·特雷弗 Claire Trevor
      William Campbell
      理查德·布恩 Richard Boone
      杰伊·C·弗利朋 Jay C. Flippen
      Myrna Hansen
      玛拉·科黛 Mara Corday
      Eddy Waller
      Sheb Wooley
      George Wallace
      Frank Chase
      Paul Birch
      罗伊·巴克罗夫特 Roy Barcroft
      William 'Bill' Phillips


◎标  签 西部 | 美国 | 西部片 | 1950s | 金·维多 | 柯克·道格拉斯 | 美国电影 | King_Vidor

◎简  介

  丹斯雷(柯克?道格拉斯Kirk Douglas 饰)是一名流浪的牛仔,一次偶然之中,他结识了名为杰夫(威廉?坎贝尔William Campbell 饰)的男子,两人之间结下了深厚的友谊。在老相好艾多妮(克莱尔?特雷弗Claire Trevor 饰)的介绍之下,丹斯雷和杰夫来到了工头司翠普(杰伊?C?弗利朋Jay C. Flippen 饰)手下干活。
  波恩小姐(珍妮?克雷恩Jeanne Crain 饰)成为了丹斯雷和杰夫的新老板,一连串的误会和意外让丹斯雷决定辞职走人,但是波恩小姐极力挽留。最终,丹斯雷决定直面他惨淡的过去。然而最终,丹斯雷还是无法习惯受制于人的生活,他辞去了农场的工作,重新踏上了旅途,做回了自由自在的流浪牛仔。
Video
ID : 1
Format : AVC
Format/Info : Advanced Video Codec
Format profile : [email protected]
Format settings, CABAC : Yes
Format settings, ReFrames : 4 frames
Codec ID : V_MPEG4/ISO/AVC
Duration : 1h 29mn
Bit rate : 9 280 Kbps
Width : 1 920 pixels
Height : 960 pixels
Display aspect ratio : 2.000
Frame rate mode : Constant
Frame rate : 23.976 (24000/1001) fps
Color space : YUV
Chroma subsampling : 4:2:0
Bit depth : 8 bits
Scan type : Progressive
Bits/(Pixel*Frame) : 0.210
Stream size : 5.78 GiB (92%)
Writing library : x264 core 142 r2389 956c8d8
Encoding settings : cabac=1 / ref=4 / deblock=1:-3:-3 / analyse=0x3:0x133 / me=umh / subme=8 / psy=1 / psy_rd=1.00:0.15 / mixed_ref=1 / me_range=16 / chroma_me=1 / trellis=1 / 8x8dct=1 / cqm=0 / deadzone=21,11 / fast_pskip=0 / chroma_qp_offset=-3 / threads=12 / lookahead_threads=2 / sliced_threads=0 / nr=0 / decimate=1 / interlaced=0 / bluray_compat=0 / constrained_intra=0 / bframes=3 / b_pyramid=2 / b_adapt=2 / b_bias=0 / direct=3 / weightb=1 / open_gop=0 / weightp=2 / keyint=240 / keyint_min=23 / scenecut=40 / intra_refresh=0 / rc_lookahead=50 / rc=crf / mbtree=1 / crf=20.0 / qcomp=0.60 / qpmin=0 / qpmax=69 / qpstep=4 / ip_ratio=1.40 / aq=1:1.00
Language : English
Default : Yes
Forced : No

Audio
ID : 2
Format : AC-3
Format/Info : Audio Coding 3
Mode extension : CM (complete main)
Format settings, Endianness : Big
Codec ID : A_AC3
Duration : 1h 29mn
Bit rate mode : Constant
Bit rate : 640 Kbps
Channel(s) : 2 channels
Channel positions : Front: L R
Sampling rate : 48.0 KHz
Frame rate : 31.250 fps (1536 spf)
Compression mode : Lossy
Stream size : 408 MiB (6%)
Language : English
Default : Yes
Forced : No

Menu
00:00:00.000 : en:00:00:00.000
00:01:29.840 : en:00:01:29.840
00:11:07.709 : en:00:11:07.709
00:19:15.905 : en:00:19:15.905
00:27:14.508 : en:00:27:14.508
00:33:15.494 : en:00:33:15.494
00:44:34.881 : en:00:44:34.881
00:54:44.114 : en:00:54:44.114
01:03:58.918 : en:01:03:58.918
01:10:28.641 : en:01:10:28.641
01:17:40.156 : en:01:17:40.156
01:28:13.663 : en:01:28:13.663





1 个附件 售价 大小 下载 时间

Man.Without.a.Star.1955.1080p.BluRay.x264.DD2.0-FGT.torrent 0 金币 63.63K 168 次 12天前

#1楼
发帖时间:2020-06-30 20:44:22   |   回复数:1
911degrees
隐世仙人♂
非常感谢,谢谢分享
11天前 #2楼
游客组