coor
一代宗师

[更 早] [其他] [剧情] [BD-1080P] 血染的舞鞋 Murder.Rock.1984.1080p.BluRay.x264.DTS-FGT 8.45GB

-->



◎译  名 血染的舞鞋
◎片  名 Murderock - uccide a passo di danza
◎年  代 1984
◎产  地 意大利
◎类  别 剧情 / 悬疑 / 惊悚
◎语  言 意大利语
◎上映日期 1984-04-20
◎IMDb评分 5.6/10 from 1408 users
◎IMDb链接 https://www.imdb.com/title/tt0087759
◎豆瓣评分 6.4/10 from 183 users
◎豆瓣链接 https://movie.douban.com/subject/2978117/
◎片  长 93分钟
◎导  演 卢西奥·弗尔兹 Lucio Fulci
◎编  剧 卢西奥·弗尔兹 Lucio Fulci
◎主  演 奥丽娃·维拉索布罗斯 Olga Karlatos
      雷·洛夫洛克 Ray Lovelock


◎标  签 意大利 | 惊悚 | 悬疑 | Giallo | 恐怖 | 卢西奥·弗尔兹 | 1984 | 1980s

◎简  介

  在纽约,看似平静的舞蹈学校其实暗潮汹涌。好色的校长,漂亮的女老师,还有一群青春懵懂的追梦青年,永远不会让这个世界消停。在大家浑浑噩噩的同时,一个变态杀手出现在校园里。漂亮的女学生一个接一个的被杀。恐怖弥漫在校园内外挥之不去...
Video
ID : 1
Format : AVC
Format/Info : Advanced Video Codec
Format profile : [email protected]
Format settings : CABAC / 4 Ref Frames
Format settings, CABAC : Yes
Format settings, Reference frames : 4 frames
Codec ID : V_MPEG4/ISO/AVC
Duration : 1 h 32 min
Bit rate : 11.5 Mb/s
Width : 1 800 pixels
Height : 1 080 pixels
Display aspect ratio : 5:3
Frame rate mode : Constant
Frame rate : 23.976 (24000/1001/189150) FPS
Color space : YUV
Chroma subsampling : 4:2:0
Bit depth : 8 bits
Scan type : Progressive
Bits/(Pixel*Frame) : 0.247
Stream size : 7.47 GiB (88%)
Title : Murder.Rock.1984.1080p.BluRay.x264.DTS-FGT
Writing library : x264 core 148 r2795M aaa9aa8
Encoding settings : cabac=1 / ref=4 / deblock=1:-2:-2 / analyse=0x3:0x113 / me=umh / subme=9 / psy=1 / psy_rd=1.00:0.15 / mixed_ref=1 / me_range=16 / chroma_me=1 / trellis=2 / 8x8dct=1 / cqm=0 / deadzone=21,11 / fast_pskip=1 / chroma_qp_offset=-3 / threads=72 / lookahead_threads=3 / sliced_threads=0 / nr=0 / decimate=1 / interlaced=0 / bluray_compat=0 / constrained_intra=0 / bframes=3 / b_pyramid=2 / b_adapt=1 / b_bias=0 / direct=3 / weightb=1 / open_gop=0 / weightp=2 / keyint=250 / keyint_min=25 / scenecut=40 / intra_refresh=0 / rc_lookahead=50 / rc=2pass / mbtree=1 / bitrate=11500 / ratetol=1.0 / qcomp=0.60 / qpmin=0 / qpmax=69 / qpstep=4 / cplxblur=20.0 / qblur=0.5 / vbv_maxrate=31250 / vbv_bufsize=31250 / nal_hrd=none / filler=0 / ip_ratio=1.40 / aq=1:1.00
Language : English
Default : Yes
Forced : No

Audio
ID : 2
Format : DTS
Format/Info : Digital Theater Systems
Codec ID : A_DTS
Duration : 1 h 32 min
Bit rate mode : Constant
Bit rate : 1 509 kb/s
Channel(s) : 2 channels
Channel layout : Lt Rt
Sampling rate : 48.0 kHz
Frame rate : 93.750 FPS (512 SPF)
Bit depth : 24 bits
Compression mode : Lossy
Stream size : 1 003 MiB (12%)
Title : Murder.Rock.1984.1080p.BluRay.x264.DTS-FGT
Language : English
Default : No
Forced : No

Text
ID : 3
Format : UTF-8
Codec ID : S_TEXT/UTF8
Codec ID/Info : UTF-8 Plain Text
Duration : 1 h 28 min
Bit rate : 37 b/s
Count of elements : 951
Stream size : 24.6 KiB (0%)
Language : English
Default : Yes
Forced : No





2 个附件 售价 大小 下载 时间

Little.Men.2016.1080p.BluRay.x264.DTS-FGT.torrent 0 金币 74.24K 266 次 12天前

Murder.Rock.1984.1080p.BluRay.x264.DTS-FGT.torrent 0 金币 84.98K 441 次 12天前

#1楼
发帖时间:2020-06-30 11:30:23   |   回复数:1
911degrees
隐世仙人♂
非常感谢,谢谢分享
12天前 #2楼
游客组