coor
一代宗师

[2019] [其他] [剧情] [BD-Remux] 追龍2:賊王 Chasing.the.Dragon.II.Wild.Wild.Bunch.2019.CHINESE.1080p.BluRay.REMUX.AVC

-->




◎译  名 追龙Ⅱ / Chasing the Dragon 2: Wild Wild Bunch / Chasing the Dragon Ⅱ / Chasing the Dragon Ⅱ: Master of Ransom / Master of Ransom / 贼王 / 追龙2 / 追龙2:追缉大富豪 / 追龙II:贼王
◎片  名 追龍2:賊王
◎年  代 2019
◎产  地 中国香港 / 中国大陆
◎类  别 剧情 / 动作 / 犯罪
◎语  言 粤语 / 汉语普通话
◎上映日期 2019-06-06(中国大陆)
◎IMDb评分 5.8/10 from 324 users
◎IMDb链接 https://www.imdb.com/title/tt10279010
◎豆瓣评分 5.5/10 from 115774 users
◎豆瓣链接 https://movie.douban.com/subject/30175306/
◎片  长 103分钟
◎导  演 王晶 Jing Wong / 关智耀 Jason Kwan Chi-Yiu
◎编  剧 王晶 Jing Wong / 吕冠南 Lui Koon Nam
◎主  演 梁家辉 Tony Leung
      古天乐 Louis Koo
      林家栋 Ka Tung Lam
      邱意浓 Sabrina Qiu
      叶相明 Xiangming Ye
      任达华 Simon Yam
      杜江 Jiang Du
      王敏德 Michael Wong
      余安安 On-on Yu
      韦家雄 Ka-Hung Wai
      陈伟雄 Phat Chan
      黄竣锋 Jason Wong
      王宝葆
      秦煌 Wong Chun


◎标  签 香港 | 犯罪 | 警匪 | 动作 | 2019 | 黑帮 | 剧情 | 悬疑

◎简  介

  悍匪龙志强,在香港回归前,趁香港英政府不作为,而屡犯巨案,先后绑架富豪利家及雷家之长子,勒索超过二十亿元,事主怕被报复, 交赎款后都不敢报警。中国公安部极为关注,与香港警方合力,派香港警员何天卧底潜入龙志强犯罪团伙,发现他正策划绑架澳门富豪贺不凡,最终陆港警察合力勇擒龙志强,救出贺不凡。
Video
ID : 1
ID in the original source medium : 4113 (0x1011)
Format : AVC
Format/Info : Advanced Video Codec
Format profile : [email protected]
Format settings : CABAC / 4 Ref Frames
Format settings, CABAC : Yes
Format settings, Reference frames : 4 frames
Codec ID : V_MPEG4/ISO/AVC
Duration : 1 h 40 min
Bit rate mode : Variable
Bit rate : 20.8 Mb/s
Maximum bit rate : 28.0 Mb/s
Width : 1 920 pixels
Height : 1 080 pixels
Display aspect ratio : 16:9
Frame rate mode : Constant
Frame rate : 24.000 FPS
Standard : NTSC
Color space : YUV
Chroma subsampling : 4:2:0
Bit depth : 8 bits
Scan type : Progressive
Bits/(Pixel*Frame) : 0.418
Stream size : 14.6 GiB (58%)
Title : Chasing.the.Dragon.II.Wild.Wild.Bunch.2019.CHINESE.1080p.BluRay.REMUX.AVC.DTS-HD.MA.TrueHD.5.1-FGT
Language : English
Default : No
Forced : No
Color range : Limited
Color primaries : BT.709
Transfer characteristics : BT.709
Matrix coefficients : BT.709
Original source medium : Blu-ray

Audio #1
ID : 2
ID in the original source medium : 4352 (0x1100)
Format : MLP FBA
Format/Info : Meridian Lossless Packing FBA
Commercial name : Dolby TrueHD
Codec ID : A_TRUEHD
Duration : 1 h 40 min
Bit rate mode : Variable
Bit rate : 2 886 kb/s
Maximum bit rate : 4 374 kb/s
Channel(s) : 6 channels
Channel layout : L R C LFE Ls Rs
Sampling rate : 96.0 kHz
Frame rate : 1 200.000 FPS (80 SPF)
Compression mode : Lossless
Stream size : 2.03 GiB (8%)
Title : Chasing.the.Dragon.II.Wild.Wild.Bunch.2019.CHINESE.1080p.BluRay.REMUX.AVC.DTS-HD.MA.TrueHD.5.1-FGT
Language : Chinese
Default : Yes
Forced : No
Original source medium : Blu-ray

Audio #2
ID : 3
Format : DTS XLL
Format/Info : Digital Theater Systems
Commercial name : DTS-HD Master Audio
Codec ID : A_DTS
Duration : 1 h 40 min
Bit rate mode : Variable
Bit rate : 3 950 kb/s
Channel(s) : 6 channels
Channel layout : C L R Ls Rs LFE
Sampling rate : 96.0 kHz
Frame rate : 187.500 FPS (512 SPF)
Bit depth : 24 bits
Compression mode : Lossless
Stream size : 2.78 GiB (11%)
Title : Chasing.the.Dragon.II.Wild.Wild.Bunch.2019.CHINESE.1080p.BluRay.REMUX.AVC.DTS-HD.MA.TrueHD.5.1-FGT
Language : Chinese
Default : No
Forced : No

Audio #3
ID : 4
ID in the original source medium : 4352 (0x1100)
Format : AC-3
Format/Info : Audio Coding 3
Commercial name : Dolby Digital
Codec ID : A_AC3
Duration : 1 h 40 min
Bit rate mode : Constant
Bit rate : 640 kb/s
Channel(s) : 6 channels
Channel layout : L R C LFE Ls Rs
Sampling rate : 48.0 kHz
Frame rate : 31.250 FPS (1536 SPF)
Bit depth : 16 bits
Compression mode : Lossy
Stream size : 461 MiB (2%)
Title : Chasing.the.Dragon.II.Wild.Wild.Bunch.2019.CHINESE.1080p.BluRay.REMUX.AVC.DTS-HD.MA.TrueHD.5.1-FGT
Language : Chinese
Service kind : Complete Main
Default : No
Forced : No
Original source medium : Blu-ray

Audio #4
ID : 5
ID in the original source medium : 4353 (0x1101)
Format : MLP FBA
Format/Info : Meridian Lossless Packing FBA
Commercial name : Dolby TrueHD
Codec ID : A_TRUEHD
Duration : 1 h 40 min
Bit rate mode : Variable
Bit rate : 2 880 kb/s
Maximum bit rate : 4 374 kb/s
Channel(s) : 6 channels
Channel layout : L R C LFE Ls Rs
Sampling rate : 96.0 kHz
Frame rate : 1 200.000 FPS (80 SPF)
Compression mode : Lossless
Stream size : 2.03 GiB (8%)
Title : Chasing.the.Dragon.II.Wild.Wild.Bunch.2019.CHINESE.1080p.BluRay.REMUX.AVC.DTS-HD.MA.TrueHD.5.1-FGT
Language : Chinese
Default : No
Forced : No
Original source medium : Blu-ray

Audio #5
ID : 6
Format : DTS XLL
Format/Info : Digital Theater Systems
Commercial name : DTS-HD Master Audio
Codec ID : A_DTS
Duration : 1 h 40 min
Bit rate mode : Variable
Bit rate : 3 947 kb/s
Channel(s) : 6 channels
Channel layout : C L R Ls Rs LFE
Sampling rate : 96.0 kHz
Frame rate : 187.500 FPS (512 SPF)
Bit depth : 24 bits
Compression mode : Lossless
Stream size : 2.78 GiB (11%)
Title : Chasing.the.Dragon.II.Wild.Wild.Bunch.2019.CHINESE.1080p.BluRay.REMUX.AVC.DTS-HD.MA.TrueHD.5.1-FGT
Language : Chinese
Default : No
Forced : No

Audio #6
ID : 7
ID in the original source medium : 4353 (0x1101)
Format : AC-3
Format/Info : Audio Coding 3
Commercial name : Dolby Digital
Codec ID : A_AC3
Duration : 1 h 40 min
Bit rate mode : Constant
Bit rate : 640 kb/s
Channel(s) : 6 channels
Channel layout : L R C LFE Ls Rs
Sampling rate : 48.0 kHz
Frame rate : 31.250 FPS (1536 SPF)
Bit depth : 16 bits
Compression mode : Lossy
Stream size : 461 MiB (2%)
Title : Chasing.the.Dragon.II.Wild.Wild.Bunch.2019.CHINESE.1080p.BluRay.REMUX.AVC.DTS-HD.MA.TrueHD.5.1-FGT
Language : Chinese
Service kind : Complete Main
Default : No
Forced : No
Original source medium : Blu-ray

Text #1
ID : 8
Format : UTF-8
Codec ID : S_TEXT/UTF8
Codec ID/Info : UTF-8 Plain Text
Duration : 1 h 34 min
Bit rate : 39 b/s
Count of elements : 1095
Stream size : 27.0 KiB (0%)
Title : English-SRT
Language : English
Default : Yes
Forced : No

Text #2
ID : 9
ID in the original source medium : 4609 (0x1201)
Format : PGS
Muxing mode : zlib
Codec ID : S_HDMV/PGS
Codec ID/Info : Picture based subtitle format used on BDs/HD-DVDs
Duration : 1 h 35 min
Bit rate : 35.4 kb/s
Count of elements : 2102
Stream size : 24.1 MiB (0%)
Title : English-PGS
Language : English
Default : No
Forced : No
Original source medium : Blu-ray

Text #3
ID : 10
ID in the original source medium : 4608 (0x1200)
Format : PGS
Muxing mode : zlib
Codec ID : S_HDMV/PGS
Codec ID/Info : Picture based subtitle format used on BDs/HD-DVDs
Duration : 1 h 35 min
Bit rate : 25.3 kb/s
Count of elements : 2102
Stream size : 17.2 MiB (0%)
Title : Chinese-PGS
Language : Chinese
Default : No
Forced : No
Original source medium : Blu-ray

Menu
00:00:00.000 : en:Chapter 01
00:09:17.291 : en:Chapter 02
00:16:56.583 : en:Chapter 03
00:25:04.291 : en:Chapter 04
00:32:34.791 : en:Chapter 05
00:44:08.666 : en:Chapter 06
00:50:56.375 : en:Chapter 07
00:59:33.291 : en:Chapter 08
01:07:44.208 : en:Chapter 09
01:17:06.291 : en:Chapter 10
01:25:51.750 : en:Chapter 11
01:36:32.500 : en:Chapter 12





1 个附件 售价 大小 下载 时间

Chasing.the.Dragon.II.Wild.Wild.Bunch.2019.CHINESE.1080p.BluRay.REMUX.AVC.DTS-HD.MA.TrueHD.5.1-FGT.torrent 0 金币 63.80K 3395 次 9天前

#1楼
发帖时间:2020-05-23 23:12:29   |   回复数:3
liyouchai
隐世仙人♂
谢谢楼主分享资源
9天前 #2楼
911degrees
隐世仙人♂
非常感谢,谢谢分享
9天前 #3楼
jokingcheung
一代宗师
谢谢分享
9天前 #4楼
游客组