coor
一代宗师

[2009] [欧美] [其他] [WEB-1080P] 细节 Minor.Details.2009.1080p.AMZN.WEBRip.DDP5.1.x264-monkee 6.08GB

-->

帖子完整标题:细节 Minor.Details.2009.1080p.AMZN.WEBRip.DDP5.1.x264-monkee 6.08GB




◎译  名 细节
◎片  名 Minor Details
◎年  代 2009
◎产  地 美国
◎类  别 悬疑 / 家庭 / 冒险
◎语  言 英语
◎上映日期 2009
◎IMDb评分 4.5/10 from 779 users
◎IMDb链接 https://www.imdb.com/title/tt1230126
◎豆瓣评分 0/10 from 0 users
◎豆瓣链接 https://movie.douban.com/subject/4073091/
◎导  演 John Lyde
◎主  演 Kelsey Edwards
      Caitlin E. J. Meyer
      Danielle Chuchran
      Lauren Faber
      Jennette McCurdy


◎标  签 美国 | 悬疑 | 家庭

◎简  介

  Someone"s trying to make the students sick at the upscale boarding school, Danforth Academy! Abby, Paige, Claire and Taylor, join forces to solve the mystery. Could it be Mia or Riley - the girls who have everything that money can buy? Or Emily the know it all Principal"s daughter? Maybe it"s the wacky Sean Meneskie? Or the school"s strange Professor Plume. Whoever it is, the four best friends are going to find out!
Video
ID : 1
Format : AVC
Format/Info : Advanced Video Codec
Format profile : [email protected]
Format settings : CABAC / 4 Ref Frames
Format settings, CABAC : Yes
Format settings, Reference frames : 4 frames
Codec ID : V_MPEG4/ISO/AVC
Duration : 1 h 25 min
Bit rate mode : Constant
Bit rate : 10 000 kb/s
Width : 1 920 pixels
Height : 1 080 pixels
Display aspect ratio : 16:9
Frame rate mode : Constant
Frame rate : 23.976 (24000/1001/189150) FPS
Color space : YUV
Chroma subsampling : 4:2:0
Bit depth : 8 bits
Scan type : Progressive
Bits/(Pixel*Frame) : 0.201
Stream size : 5.70 GiB (94%)
Default : Yes
Forced : No
Color range : Limited
Color primaries : BT.709
Transfer characteristics : BT.709
Matrix coefficients : BT.709

Audio
ID : 2
Format : E-AC-3
Format/Info : Enhanced AC-3
Commercial name : Dolby Digital Plus
Codec ID : A_EAC3
Duration : 1 h 25 min
Bit rate mode : Constant
Bit rate : 640 kb/s
Channel(s) : 6 channels
Channel layout : L R C LFE Ls Rs
Sampling rate : 48.0 kHz
Frame rate : 31.250 FPS (1536 SPF)
Compression mode : Lossy
Stream size : 392 MiB (6%)
Language : English
Service kind : Complete Main
Default : Yes
Forced : No

Text #1
ID : 3
Format : UTF-8
Codec ID : S_TEXT/UTF8
Codec ID/Info : UTF-8 Plain Text
Duration : 1 h 23 min
Bit rate : 71 b/s
Count of elements : 1451
Stream size : 43.4 KiB (0%)
Language : English
Default : No
Forced : No

Text #2
ID : 4
Format : UTF-8
Codec ID : S_TEXT/UTF8
Codec ID/Info : UTF-8 Plain Text
Duration : 1 h 23 min
Bit rate : 73 b/s
Count of elements : 1546
Stream size : 45.1 KiB (0%)
Title : SDH
Language : English
Default : No
Forced : No





1 个附件 售价 大小 下载 时间

Minor.Details.2009.1080p.AMZN.WEBRip.DDP5.1.x264-monkee.torrent 0 金币 30.94K 168 次 9天前

#1楼
发帖时间:2020-05-23 19:45:05   |   回复数:1
911degrees
隐世仙人♂
非常感谢,谢谢分享
9天前 #2楼
游客组