coor
一代宗师

[2019] [韩国] [剧情] [BD-1080P] 生日 Birthday.2019.1080p.BluRay.x264-GiMCHi 10.14GB

-->

帖子完整标题:生日 Birthday.2019.1080p.BluRay.x264-GiMCHi 10.14GB




◎译  名 生日 / Birthday / 没有你的生日(台) / 没有你的生日会(港) / 生日宴会 / 礼物 / ????
◎片  名 ??
◎年  代 2019
◎产  地 韩国
◎类  别 剧情
◎语  言 韩语
◎上映日期 2019-04-03(韩国)
◎IMDb评分 6.9/10 from 141 users
◎IMDb链接 https://www.imdb.com/title/tt10248334
◎豆瓣评分 7.6/10 from 4572 users
◎豆瓣链接 https://movie.douban.com/subject/27887836/
◎片  长 120分钟
◎导  演 李钟言 Jong-eon Lee
◎编  剧 李钟言 Jong-eon Lee
◎主  演 薛耿求 Kyung-gu Sol
      全度妍 Do-yeon Jeon
      金宝敏 Bo-min Kim
      尹灿荣 Chan-young Yoon
      金秀珍 Soo Jin Kim
      李凤莲 Lee Bong-ryeon
      朴钟焕 Jong-hwan Park
      权昭贤 So-hyun Kwon
      成侑彬 Yoo-bin Sung
      汤峻相 Joon-sang Tang
      申文成 Mun-sung Shin


◎标  签 韩国 | 世越号事件 | 家庭 | 真实事件改编 | 灾难 | 2019 | 温情 | 剧情

◎简  介

  该片由李钟言执导,讲述了在岁月号事故之后,遗属们和生存下来的人们克服伤痛并治愈的故事。

◎获奖情况

  第40届韩国电影青龙奖(2019)
  最佳男主角(提名) 薛景求
  最佳女主角(提名) 全度妍
  最佳新人导演(提名) 李钟言

  第56届百想艺术大赏(2020)
  电影类 最佳导演(提名) 李钟言
  电影类 最佳女主角(提名) 全度妍

  第55届百想艺术大赏(2019)
  电影类 最佳新人导演(提名) 李钟言
Video
ID : 1
Format : AVC
Format/Info : Advanced Video Codec
Format profile : [email protected]
Format settings : CABAC / 4 Ref Frames
Format settings, CABAC : Yes
Format settings, Reference frames : 4 frames
Codec ID : V_MPEG4/ISO/AVC
Duration : 1 h 59 min
Bit rate : 8 497 kb/s
Width : 1 920 pixels
Height : 960 pixels
Display aspect ratio : 2.000
Frame rate mode : Constant
Frame rate : 23.976 (24000/1001/189150) FPS
Color space : YUV
Chroma subsampling : 4:2:0
Bit depth : 8 bits
Scan type : Progressive
Bits/(Pixel*Frame) : 0.192
Stream size : 7.12 GiB (70%)
Writing library : x264 core 160 r3000 33f9e14
Encoding settings : cabac=1 / ref=4 / deblock=1:-3:-3 / analyse=0x3:0x133 / me=umh / subme=9 / psy=1 / psy_rd=1.00:0.00 / mixed_ref=1 / me_range=16 / chroma_me=1 / trellis=2 / 8x8dct=1 / cqm=0 / deadzone=21,11 / fast_pskip=1 / chroma_qp_offset=-2 / threads=16 / lookahead_threads=1 / sliced_threads=0 / nr=0 / decimate=1 / interlaced=0 / bluray_compat=0 / constrained_intra=0 / bframes=3 / b_pyramid=2 / b_adapt=2 / b_bias=0 / direct=3 / weightb=1 / open_gop=0 / weightp=2 / keyint=240 / keyint_min=23 / scenecut=40 / intra_refresh=0 / rc_lookahead=60 / rc=crf / mbtree=1 / crf=17.0 / qcomp=0.60 / qpmin=0 / qpmax=69 / qpstep=4 / ip_ratio=1.40 / aq=1:1.00
Language : English
Default : Yes
Forced : No

Audio #1
ID : 2
Format : DTS XLL
Format/Info : Digital Theater Systems
Commercial name : DTS-HD Master Audio
Codec ID : A_DTS
Duration : 1 h 59 min
Bit rate mode : Variable
Bit rate : 3 482 kb/s
Channel(s) : 6 channels
Channel layout : C L R Ls Rs LFE
Sampling rate : 48.0 kHz
Frame rate : 93.750 FPS (512 SPF)
Bit depth : 24 bits
Compression mode : Lossless
Stream size : 2.92 GiB (29%)
Title : Korean
Language : Korean
Default : Yes
Forced : No

Audio #2
ID : 3
Format : AAC LC
Format/Info : Advanced Audio Codec Low Complexity
Codec ID : A_AAC-2
Duration : 1 h 59 min
Bit rate : 103 kb/s
Channel(s) : 2 channels
Channel layout : L R
Sampling rate : 48.0 kHz
Frame rate : 46.875 FPS (1024 SPF)
Compression mode : Lossy
Delay relative to video : 9 ms
Stream size : 88.6 MiB (1%)
Title : Commentary
Language : Korean
Default : No
Forced : No

Text #1
ID : 4
Format : PGS
Muxing mode : zlib
Codec ID : S_HDMV/PGS
Codec ID/Info : Picture based subtitle format used on BDs/HD-DVDs
Duration : 1 h 59 min
Bit rate : 18.4 kb/s
Count of elements : 2273
Stream size : 15.7 MiB (0%)
Title : English
Language : English
Default : Yes
Forced : No

Text #2
ID : 5
Format : PGS
Muxing mode : zlib
Codec ID : S_HDMV/PGS
Codec ID/Info : Picture based subtitle format used on BDs/HD-DVDs
Duration : 1 h 55 min
Bit rate : 18.2 kb/s
Count of elements : 2173
Stream size : 15.0 MiB (0%)
Title : Korean
Language : Korean
Default : No
Forced : No

Menu #1
00:00:00.000 : en:Chapter 01
00:06:17.961 : en:Chapter 02
00:13:58.254 : en:Chapter 03
00:22:51.787 : en:Chapter 04
00:30:54.227 : en:Chapter 05
00:35:26.833 : en:Chapter 06
00:42:56.115 : en:Chapter 07
00:46:57.314 : en:Chapter 08
00:54:54.374 : en:Chapter 09
01:04:39.626 : en:Chapter 10
01:09:54.982 : en:Chapter 11
01:17:50.165 : en:Chapter 12
01:23:10.736 : en:Chapter 13
01:33:22.972 : en:Chapter 14
01:42:13.461 : en:Chapter 15
01:49:56.882 : en:Chapter 16
01:54:48.465 : en:Chapter 17

Menu #2
00:00:00.054 : en:Chapter 01





1 个附件 售价 大小 下载 时间

Birthday.2019.1080p.BluRay.x264-GiMCHi.torrent 0 金币 51.29K 1120 次 9天前

#1楼
发帖时间:2020-05-23 19:24:05   |   回复数:4
911degrees
隐世仙人♂
非常感谢,谢谢分享
9天前 #2楼
liyouchai
隐世仙人♂
谢谢楼主分享资源
9天前 #3楼
PCHUN
武林高手
Thanks for sharing
9天前 #4楼
kola13
一派掌门
感谢分享
9天前 #5楼
游客组