coor
一代宗师

[2019] [欧美] [恐怖] [BD-720P] 冷溪营地 Camp.Cold.Brook.2018.720p.BluRay.x264-LATENCY 4.64GB

-->

帖子完整标题:冷溪营地 Camp.Cold.Brook.2018.720p.BluRay.x264-LATENCY 4.64GB




◎译  名 冷溪营地
◎片  名 Camp Cold Brook
◎年  代 2019
◎产  地 美国
◎类  别 恐怖
◎语  言 英语
◎上映日期 2018-08-25(美国)
◎IMDb评分 5.3/10 from 1116 users
◎IMDb链接 https://www.imdb.com/title/tt5829032
◎豆瓣评分 4.1/10 from 101 users
◎豆瓣链接 https://movie.douban.com/subject/27109318/
◎片  长 86分钟
◎导  演 安迪·帕尔默 Andy Palmer
◎编  剧 Alex Carl
◎主  演 丹妮尔·哈丽丝 Danielle Harris
      查德·迈克尔·墨瑞 Chad Michael Murray
      考特尼·盖恩斯 Courtney Gains
      凯特·琼斯 Cate Jones
      迈克尔·埃里克·里德 Michael Eric Reid
      康迪斯·德·维瑟 Candice De Visser
      朱丽叶·吉达 Juliette Kida
      Mary Kathryn Bryant
      Jason Van Eman
      Corbin Tyler


◎标  签 恐怖 | 美国 | 美国电影 | 惊悚 | 查德·迈克尔·墨瑞 | 2019 | 女巫 | 恶灵

◎简  介

  一个超自然的小组开始检查一个废弃的夏令营,那里几十年前发生了一起大规模谋杀案。
Video
ID : 1
Format : AVC
Format/Info : Advanced Video Codec
Format profile : [email protected]
Format settings : CABAC / 8 Ref Frames
Format settings, CABAC : Yes
Format settings, Reference frames : 8 frames
Codec ID : V_MPEG4/ISO/AVC
Duration : 1 h 28 min
Bit rate : 6 813 kb/s
Width : 1 280 pixels
Height : 536 pixels
Display aspect ratio : 2.40:1
Frame rate mode : Constant
Frame rate : 23.976 (24000/1001/189150) FPS
Color space : YUV
Chroma subsampling : 4:2:0
Bit depth : 8 bits
Scan type : Progressive
Bits/(Pixel*Frame) : 0.414
Stream size : 4.23 GiB (91%)
Writing library : x264 core 160 r3000 33f9e14
Encoding settings : cabac=1 / ref=8 / deblock=1:-3:-3 / analyse=0x3:0x133 / me=umh / subme=9 / psy=1 / psy_rd=1.00:0.00 / mixed_ref=1 / me_range=32 / chroma_me=1 / trellis=2 / 8x8dct=1 / cqm=0 / deadzone=21,11 / fast_pskip=0 / chroma_qp_offset=-2 / threads=17 / lookahead_threads=2 / sliced_threads=0 / nr=0 / decimate=0 / interlaced=0 / bluray_compat=0 / constrained_intra=0 / bframes=9 / b_pyramid=2 / b_adapt=2 / b_bias=0 / direct=3 / weightb=1 / open_gop=0 / weightp=2 / keyint=250 / keyint_min=23 / scenecut=40 / intra_refresh=0 / rc=crf / mbtree=0 / crf=16.0 / qcomp=0.60 / qpmin=0 / qpmax=69 / qpstep=4 / ip_ratio=1.40 / pb_ratio=1.30 / aq=3:0.88
Default : Yes
Forced : No
Color range : Limited
Color primaries : BT.709
Transfer characteristics : BT.709
Matrix coefficients : BT.709

Audio
ID : 2
Format : AC-3
Format/Info : Audio Coding 3
Commercial name : Dolby Digital
Codec ID : A_AC3
Duration : 1 h 28 min
Bit rate mode : Constant
Bit rate : 640 kb/s
Channel(s) : 6 channels
Channel layout : L R C LFE Ls Rs
Sampling rate : 48.0 kHz
Frame rate : 31.250 FPS (1536 SPF)
Bit depth : 16 bits
Compression mode : Lossy
Stream size : 407 MiB (9%)
Title : English
Language : English
Service kind : Complete Main
Default : No
Forced : No

Text
ID : 3
Format : PGS
Muxing mode : zlib
Codec ID : S_HDMV/PGS
Codec ID/Info : Picture based subtitle format used on BDs/HD-DVDs
Duration : 1 h 26 min
Bit rate : 26.7 kb/s
Count of elements : 1610
Stream size : 16.4 MiB (0%)
Title : English
Language : English
Default : No
Forced : No

Menu
00:00:00.000 : en:Chapter 01
00:08:07.778 : en:Chapter 02
00:14:35.916 : en:Chapter 03
00:23:41.670 : en:Chapter 04
00:30:43.216 : en:Chapter 05
00:36:52.877 : en:Chapter 06
00:46:15.856 : en:Chapter 07
00:53:50.977 : en:Chapter 08
01:01:51.082 : en:Chapter 09
01:08:35.069 : en:Chapter 10
01:16:21.994 : en:Chapter 11
01:24:20.847 : en:Chapter 12
01:28:54.120 : en:Chapter 13





1 个附件 售价 大小 下载 时间

Camp.Cold.Brook.2018.720p.BluRay.x264-LATENCY.torrent 0 金币 47.04K 301 次 9天前

#1楼
发帖时间:2020-05-23 08:38:39   |   回复数:1
911degrees
隐世仙人♂
非常感谢,谢谢分享
9天前 #2楼
游客组