coor
一代宗师

[更 早] [日本] [剧情] [BD-1080P] 青春之杀人者 The.Youth.Killer.1976.JAPANESE.1080p.BluRay.x264.DTS-FGT 9.96GB

-->

帖子完整标题:青春之杀人者 The.Youth.Killer.1976.JAPANESE.1080p.BluRay.x264.DTS-FGT 9.96GB




◎译  名 青春之杀人者 / The Youth Killer / 青春杀人犯
◎片  名 青春の殺人者
◎年  代 1976
◎产  地 日本
◎类  别 剧情 / 犯罪
◎语  言 日语
◎上映日期 1976-10-23(日本)
◎IMDb评分 6.9/10 from 227 users
◎IMDb链接 https://www.imdb.com/title/tt0217038
◎豆瓣评分 7.3/10 from 569 users
◎豆瓣链接 https://movie.douban.com/subject/1306201/
◎片  长 132分钟
◎导  演 长谷川和彦 Kazuhiko Hasegawa
◎编  剧 田村孟 Tsutomu Tamura
◎主  演 原田美枝子
      市原悦子
      白川和子
      水谷丰


◎标  签 日本 | 长谷川和彦 | 日本电影 | 1976 | 原田美枝子 | 青春 | 1970s | 犯罪

◎简  介

  22岁的青年齐木顺(水谷丰 饰)其家中经营一家修车行,他靠父母出钱开了一个小酒吧,年轻貌美的美子(原田美枝子 饰)在酒吧中作女招待,久而久之,两人产生了感情。
  顺的父亲(内田良平 饰)私下请侦探了解美子的底细,因美子过去的一些经历而严厉禁止两人交往。父子争论不休,顺气急杀死了父亲,随后在争斗中亦将母亲杀死,从此走上了一条通往黑暗的道路……
  长谷川和彦导演处女作,原著为中上健次的短篇小说《蛇淫》,系根据1974年发生在千叶县市原市发生的真实弑亲案件改编。

◎获奖情况

  第1届报知映画赏(1976)
  最佳新人奖 原田美枝子
Video
ID : 1
Format : AVC
Format/Info : Advanced Video Codec
Format profile : [email protected]
Format settings : CABAC / 4 Ref Frames
Format settings, CABAC : Yes
Format settings, Reference frames : 4 frames
Codec ID : V_MPEG4/ISO/AVC
Duration : 2 h 1 min
Bit rate : 11.5 Mb/s
Width : 1 920 pixels
Height : 1 036 pixels
Display aspect ratio : 1.85:1
Frame rate mode : Constant
Frame rate : 23.976 (24000/1001) FPS
Color space : YUV
Chroma subsampling : 4:2:0
Bit depth : 8 bits
Scan type : Progressive
Bits/(Pixel*Frame) : 0.241
Stream size : 9.74 GiB (98%)
Title : The.Youth.Killer.1976.JAPANESE.1080p.BluRay.x264.DTS-FGT
Writing library : x264 core 148 r2795M aaa9aa8
Encoding settings : cabac=1 / ref=4 / deblock=1:-2:-2 / analyse=0x3:0x113 / me=umh / subme=9 / psy=1 / psy_rd=1.00:0.15 / mixed_ref=1 / me_range=16 / chroma_me=1 / trellis=2 / 8x8dct=1 / cqm=0 / deadzone=21,11 / fast_pskip=1 / chroma_qp_offset=-3 / threads=24 / lookahead_threads=3 / sliced_threads=0 / nr=0 / decimate=1 / interlaced=0 / bluray_compat=0 / constrained_intra=0 / bframes=3 / b_pyramid=2 / b_adapt=1 / b_bias=0 / direct=3 / weightb=1 / open_gop=0 / weightp=2 / keyint=250 / keyint_min=25 / scenecut=40 / intra_refresh=0 / rc_lookahead=50 / rc=2pass / mbtree=1 / bitrate=11500 / ratetol=1.0 / qcomp=0.60 / qpmin=0 / qpmax=69 / qpstep=4 / cplxblur=20.0 / qblur=0.5 / vbv_maxrate=31250 / vbv_bufsize=31250 / nal_hrd=none / filler=0 / ip_ratio=1.40 / aq=1:1.00
Language : Japanese
Default : Yes
Forced : No

Audio
ID : 2
Format : DTS
Format/Info : Digital Theater Systems
Codec ID : A_DTS
Duration : 2 h 1 min
Bit rate mode : Constant
Bit rate : 255 kb/s
Channel(s) : 1 channel
Channel layout : C
Sampling rate : 48.0 kHz
Frame rate : 93.750 FPS (512 SPF)
Bit depth : 16 bits
Compression mode : Lossy
Stream size : 221 MiB (2%)
Title : The.Youth.Killer.1976.JAPANESE.1080p.BluRay.x264.DTS-FGT
Language : Japanese
Default : Yes
Forced : No

Text
ID : 3
Format : UTF-8
Codec ID : S_TEXT/UTF8
Codec ID/Info : UTF-8 Plain Text
Duration : 2 h 1 min
Bit rate : 35 b/s
Count of elements : 1062
Stream size : 31.7 KiB (0%)
Language : English
Default : Yes
Forced : No

Menu
00:00:00.000 : en:Chapter 01
00:02:24.603 : en:Chapter 02
00:04:46.119 : en:Chapter 03
00:07:21.650 : en:Chapter 04
00:09:48.087 : en:Chapter 05
00:13:20.925 : en:Chapter 06
00:20:20.761 : en:Chapter 07
00:25:28.861 : en:Chapter 08
00:33:45.482 : en:Chapter 09
00:36:49.165 : en:Chapter 10
00:46:02.885 : en:Chapter 11
00:47:26.677 : en:Chapter 12
00:48:31.992 : en:Chapter 13
00:52:25.476 : en:Chapter 14
00:55:52.099 : en:Chapter 15
00:59:56.760 : en:Chapter 16
01:03:19.629 : en:Chapter 17
01:06:48.129 : en:Chapter 18
01:08:52.837 : en:Chapter 19
01:11:07.555 : en:Chapter 20
01:18:04.263 : en:Chapter 21
01:21:13.368 : en:Chapter 22
01:24:45.122 : en:Chapter 23
01:29:50.010 : en:Chapter 24
01:33:23.056 : en:Chapter 25
01:38:14.055 : en:Chapter 26
01:40:51.754 : en:Chapter 27
01:45:43.546 : en:Chapter 28
01:51:44.740 : en:Chapter 29
01:57:29.626 : en:Chapter 30





1 个附件 售价 大小 下载 时间

The.Youth.Killer.1976.JAPANESE.1080p.BluRay.x264.DTS-FGT.torrent 0 金币 50.34K 609 次 1月前

#1楼
发帖时间:2020-02-15 03:02:47   |   回复数:1
911degrees
隐世仙人♂
非常感谢,谢谢分享
1月前 #2楼
游客组